новый адрес
Ссылка на приватное зеркало всего за 1$. Внимание количество ограничено!!!

iTunes

1+1

iTunes

мы

WEB-DL

1

iTunes

Чернобыль

iTunes

Ральф против интернета

Лицензия

ПШазам

Лицензия

Оно 2

Лицензия

30
pack

Вам бонус

ВАЖНО

!!Акция!!

Alien_RageХит недели

RePack

Resident Evil 21

ИГРА 18+

pack

RePack

jed

!!Акция!!

Alien_Rage

RePack

fifa19

RePack

Assassins Creed: Odyssey

RePack

NEED FOR SPEED™ PAYBACK

3 сезон

9 сезон

Бесстыжие 9 сезон

Все сериалы

все сериалы на PB.wtf

RePack

FAR CRY 5
Ребята, катастрофически не хватает 1900р. для оплаты серверов за Октябрь (всвязи с блокировками трафик упал в 3 раза), 1-2р., выручайте.
  

Иван сын Амира (Максим Панфилов) [2013, мелодрама, драма, WEB-DLRip] [Чистый звук] pb.wtf

Иван сын Амира через торрент pb.wtf

Размер: 1.46 GB | Добавлен: 3 года 8 мес. назад | Торрент скачан:188 раз
Скачать  

03-04-2016 16:13 Иван сын Амира Скачать торрент  

Иван сын Амира
Год выпуска » 2016
Страна » Россия, Кинокомпания Вера
Жанр » Мелодрама, драма
Продолжительность » 02:28:53
Перевод » Оригинал [Чистый звук]
Субтитры » Отсутствуют

В ролях
» Каролина Грушка, Дмитрий Дюжев, Бобур Юлдашев, Андрей Мерзликин, Лола Эльтаева, Наргис Абдуллаева, Азиза Бегматова, Анастасия Смоктуновская, Самира Хусенова, Ярослав Леонов


Режиссёр
» Максим Панфилов

» Она — из Севастополя. Он — из узбекского кишлака и у него две жены. Она бежит со своими детьми от войны и находит убежище в его доме. Она станет его третьей женой и родит ему сына. Она не знает, что ее муж — лейтенант Черноморского флота жив и скоро найдет ее.

• Качество » WEB-DLRip
• Формат » XviD
• Видео кодек » AVC
• Аудио кодек » AC3
• Видео »MPEG-4 Visual, 1265 Кбит/с, 720x304 at 25.000 fps
• Аудио » Русский (AC-3/ 2 ch / 128 kbps / 48,0 КГц / 16 bit )




Дата мировой премьеры: 28 августа 2013
Общее
Полное имя : C:\Users\DRON & LeXuZ\Desktop\Ivan.Sin.Amira.2014.WEBDLRip.MegaPeer.avi
Формат : AVI
Формат/Информация : Audio Video Interleave
Размер файла : 1,46 Гбайт
Продолжительность : 2 ч. 28 м.
Общий поток : 1403 Кбит/сек
Программа кодирования : VirtualDubMod 1.5.10.3 | www.virtualdub-fr.org || (build 2550/release)
Библиотека кодирования : VirtualDubMod build 2550/release

Видео
Идентификатор : 0
Формат : MPEG-4 Visual
Профиль формата : Advanced Simple@L5
Параметр BVOP формата : 1
Параметр QPel формата : Нет
Параметр GMC формата : Без точки перехода
Параметр матрицы формата : Выборочная
Идентификатор кодека : XVID
Идентификатор кодека/Подсказка : XviD
Продолжительность : 2 ч. 28 м.
Битрейт : 1265 Кбит/сек
Ширина : 720 пикселей
Высота : 304 пикселя
Соотношение сторон : 2,35:1
Частота кадров : 25,000 кадров/сек
Цветовое пространство : YUV
Субдискретизация насыщенности : 4:2:0
Битовая глубина : 8 бит
Тип развёртки : Прогрессивная
Метод сжатия : С потерями
Бит/(Пиксели*Кадры) : 0.231
Размер потока : 1,32 Гбайт (90%)
Библиотека кодирования : XviD 73

Аудио
Идентификатор : 1
Формат : MPEG Audio
Версия формата : Version 1
Профиль формата : Layer 3
Идентификатор кодека : 55
Идентификатор кодека/Подсказка : MP3
Продолжительность : 2 ч. 28 м.
Вид битрейта : Постоянный
Битрейт : 128 Кбит/сек
Каналы : 2 канала
Частота : 48,0 КГц
Метод сжатия : С потерями
Размер потока : 136 Мбайт (9%)
Выравнивание : Соединение по промежуткам
Продолжительность промежутка : 40 мс. (1,00 видеокадр)
Время предзагрузки промежутка : 504 мс.
Библиотека кодирования : LAME3.99r
Настройки программы : -m s -V 4 -q 2 -lowpass 17 -b 128
[/code]
скриншот   скриншот   скриншот  
pb.wtf



Скачать Иван сын Амира через торрент http://i74.fastpic.ru/big/2015/1218/b5/c39d072d168dbcde95d1a17f670689b5.gif Скачать фильм Иван сын Амира через торрент бесплантно в хорошем качестве В ролях » Каролина Грушка, Дмитрий Дюжев, Бобур Юлдашев, Андрей Мерзликин, Лола Эльтаева, Наргис Абдуллаева, Азиза Бегматова, Анастасия ... 8 10 11
Торрент: Зарегистрирован [2016-04-03 16:13] · скачан: 188 раз
Статус: T временная
Размер: 1.46 GB
Как cкачать? Как скачать Иван сын Амира через торрент | qTorrent

28-11-2019 20:33  

Отключить всю рекламу на сайте

04-04-2016 17:12 Иван сын Амира Скачать торрент  

100 раз скачан и ни одного отзыва? Хм значит нет эмоций у людей после просмотра этого фильма .pb.wtf



04-04-2016 17:12 Иван сын Амира Скачать торрент  

100 раз скачан и ни одного отзыва? Хм значит нет эмоций у людей после просмотра этого фильма .pb.wtf



04-04-2016 17:12 Иван сын Амира Скачать торрент  

100 раз скачан и ни одного отзыва? Хм значит нет эмоций у людей после просмотра этого фильма .pb.wtf



04-04-2016 17:12 Иван сын Амира Скачать торрент  

100 раз скачан и ни одного отзыва? Хм значит нет эмоций у людей после просмотра этого фильма .pb.wtf



04-04-2016 17:12 Иван сын Амира Скачать торрент  

100 раз скачан и ни одного отзыва? Хм значит нет эмоций у людей после просмотра этого фильма .pb.wtf



05-04-2016 10:50 Иван сын Амира Скачать торрент  

А 3 жены ему жирно не будет pb.wtf



    Дорогой пользователь! Огромная просьба, поблагодарите релизера, оцените раздачу и оставьте свои комментарий, если Вы скачали Иван сын Амира через торрент бесплатно! Внесите свою лепту в развитие PiratBit!
    Комментировать посты могут только пользователи прошедшие не сложную регистрацию
    Показать сообщения:    

    Иван сын Амира через торрент
    Скачать бесплатно Иван сын Амира
    Иван сын Амира скачать торрент
    Иван сын Амира смотреть онлайн
    Cкачать фильм Иван сын Амира бесплатно
    Иван сын Амира скачать торрент в хорошем качестве
    Иван сын Амира смотреть онлайн бесплатно в хорошем качестве


    Вы не можете начинать темы
    Вы не можете отвечать на сообщения
    Вы не можете редактировать свои сообщения
    Вы не можете удалять свои сообщения
    Вы не можете голосовать в опросах
    Вы не можете прикреплять файлы к сообщениям
    Вы можете скачивать файлы