Ссылка на приватное зеркало нашего сайта всего за 1$. Внимание количество ограничено!!!

2 сезон

iTunes

1 сезон

1

2 сезон

2 сезон

iTunes

1 сезон

RePack

30

Ultimate

ВАЖНО

ИГРА 18+

pack

RePack

MK11
pack

Забери бонус

RePack

jed

!!Акция!!

Alien_Rage

RePack

fifa19

RePack

Assassins Creed: Odyssey

RePack

NEED FOR SPEED™ PAYBACK

4 сезон

9 сезон

Бесстыжие 9 сезон

Все сериалы

все сериалы на PB.wtf

RePack

FAR CRY 5
  

Тихая ночь, смертельная ночь / Silent Night, Deadly Night (Чарльз Е. Селлер мл.) [1984, ужасы, триллер, BDRip 720p by msltel] AVO pb.wtf

Тихая ночь, смертельная ночь через торрент pb.wtf

Размер: 3.6 GB | Добавлен: 4 года 7 мес. назад | Торрент скачан:21 раз
Скачать  

04-04-2016 08:07 Тихая ночь, смертельная ночь Скачать торрент  

Название: Тихая ночь, смертельная ночь
Оригинальное название: Silent Night, Deadly Night
Год выпуска: 1984
Страна: США
Жанр: ужасы, триллер
Продолжительность: 01:24:53
Перевод: авторский

Режиссёр: Чарльз Е. Селлер мл.

В ролях: Лилиан Шовин, Гилмер МакКормик, Тони Неро, Роберт Брайан Уилсон, Бритт Лич, Нэнси Боргенихт, Х.Е.Д. Редфорд, Дэнни Вагнер, Линни Куигли, Лео Гетер

Описание: Жила-была одна семья, в которую входили муж, жена и пара их маленьких сыновей. И вот, в канун рождества, решили они проведать своего деда. Так получилось, что один из детишек, тот что постарше, остался наедине со стариком. А дед, до этого не произнесший ни слова, вдруг стал ему рассказывать всякие страшные вещи про Санта-Клаусов. На такого Санту и напарывается возвращающаяся от деда семья. В результате этой встречи в живых остаются только двое детей. Но это только начало истории...



Качество: BDRip 720p Сравнение с исходником
Формат: MKV
Видео: MPEG-4 AVC, 5429 Кбит/с, 1280x686, 23,976 кадра/с
Аудио 1: русский, AC3, 192 kbps, 2 ch, 48 kHz [авторский, Сергей Визгунов]
Аудио 2: английский, AC3, 448 kbps, 6 ch, 48 kHz [оригинал]
Субтитры: английские
Общее
Уникальный идентификатор : 188144599478860948113029507337971788625 (0x8D8B54F0EADC4021955D8F4B95B76B51)
Полное имя : D:\Video\Тихая ночь, смертельная ночь.1984.BDRip.720p.mkv
Формат : Matroska
Версия формата : Version 4 / Version 2
Размер файла : 3,60 Гбайт
Продолжительность : 1 ч. 24 м.
Общий поток : 6071 Кбит/сек
Дата кодирования : UTC 2016-04-03 06:28:20
Программа кодирования : mkvmerge v8.2.0 ('World of Adventure') 64bit
Библиотека кодирования : libebml v1.3.1 + libmatroska v1.4.2

Видео
Идентификатор : 1
Формат : AVC
Формат/Информация : Advanced Video Codec
Профиль формата : High@L4.1
Параметр CABAC формата : Да
Параметр ReFrames формата : 9 кадров
Идентификатор кодека : V_MPEG4/ISO/AVC
Продолжительность : 1 ч. 24 м.
Битрейт : 5429 Кбит/сек
Ширина : 1280 пикселей
Высота : 686 пикселей
Соотношение сторон : 1,85:1
Режим частоты кадров : Постоянный
Частота кадров : 23,976 (24000/1001) кадра/сек
Цветовое пространство : YUV
Субдискретизация насыщенности : 4:2:0
Битовая глубина : 8 бит
Тип развёртки : Прогрессивная
Бит/(Пиксели*Кадры) : 0.258
Размер потока : 3,22 Гбайт (89%)
Библиотека кодирования : x264 core 146 r2538 121396c
Настройки программы : cabac=1 / ref=9 / deblock=1:-3:-3 / analyse=0x3:0x113 / me=umh / subme=10 / psy=1 / psy_rd=1.00:0.15 / mixed_ref=1 / me_range=32 / chroma_me=1 / trellis=2 / 8x8dct=1 / cqm=0 / deadzone=21,11 / fast_pskip=1 / chroma_qp_offset=-3 / threads=6 / lookahead_threads=1 / sliced_threads=0 / nr=0 / decimate=1 / interlaced=0 / bluray_compat=0 / constrained_intra=0 / bframes=7 / b_pyramid=2 / b_adapt=2 / b_bias=0 / direct=1 / weightb=1 / open_gop=0 / weightp=2 / keyint=230 / keyint_min=23 / scenecut=40 / intra_refresh=0 / rc_lookahead=40 / rc=crf / mbtree=0 / crf=18.5 / qcomp=0.60 / qpmin=0 / qpmax=69 / qpstep=4 / vbv_maxrate=40000 / vbv_bufsize=50000 / crf_max=0.0 / nal_hrd=none / filler=0 / ip_ratio=1.40 / pb_ratio=1.30 / aq=1:1.00
Язык : English
Default : Да
Forced : Нет

Аудио #1
Идентификатор : 2
Формат : AC-3
Формат/Информация : Audio Coding 3
Расширение режима : CM (complete main)
Параметр Endianness формата : Big
Идентификатор кодека : A_AC3
Продолжительность : 1 ч. 24 м.
Вид битрейта : Постоянный
Битрейт : 192 Кбит/сек
Каналы : 2 канала
Расположение каналов : Front: L R
Частота : 48,0 КГц
Частота кадров : 31,250 кадров/сек (1536 spf)
Метод сжатия : С потерями
Размер потока : 117 Мбайт (3%)
Заголовок : AVO (Сергей Визгунов)
Язык : Russian
Default : Да
Forced : Нет

Аудио #2
Идентификатор : 3
Формат : AC-3
Формат/Информация : Audio Coding 3
Расширение режима : CM (complete main)
Параметр Endianness формата : Big
Идентификатор кодека : A_AC3
Продолжительность : 1 ч. 24 м.
Вид битрейта : Постоянный
Битрейт : 448 Кбит/сек
Каналы : 6 каналов
Расположение каналов : Front: L C R, Side: L R, LFE
Частота : 48,0 КГц
Частота кадров : 31,250 кадров/сек (1536 spf)
Метод сжатия : С потерями
Размер потока : 272 Мбайт (7%)
Заголовок : Original
Язык : English
Default : Нет
Forced : Нет

Текст
Идентификатор : 4
Формат : UTF-8
Идентификатор кодека : S_TEXT/UTF8
Идентификатор кодека/Информация : UTF-8 Plain Text
Продолжительность : 1 ч. 24 м.
Битрейт : 42 бит/сек
Count of elements : 856
Размер потока : 26,6 Кбайт (0%)
Заголовок : английский
Язык : English
Default : Нет
Forced : Нет
pb.wtf



Скачать Тихая ночь, смертельная ночь через торрент http://s015.radikal.ru/i332/1604/3b/1d53e3bee0b9.jpg Скачать фильм Тихая ночь, смертельная ночь через торрент бесплантно в хорошем качестве Описание: Жила-была одна семья, в которую входили муж, жена и пара их маленьких сыновей. И вот, в канун рождества, решили они проведать ... 10 10 3
Info! Золотая раздача, скачанное не засчитывается.
Торрент: Зарегистрирован [2016-04-04 08:07] · скачан: 21 раз
Статус: √ проверено
Размер: 3.6 GB
Как cкачать? Как скачать Тихая ночь, смертельная ночь через торрент | qTorrent

% Раздел Тема Автор DL S | L
Фильмы (Blu-ray, BD-Remux, HDDVD) [ 20.45 GB ] Тихая ночь смертельная ночь 2 / Silent Night Deadly Night 2 [1987 BD Remux 1080р] 2xAVO bober100 Скачать
1 | 0
Фильмы (Blu-ray, BD-Remux, HDDVD) [ 17.58 GB ] Тихая ночь смертельная ночь / Silent Night Deadly Night [1984 BDRemux 1080р] AVO Леонид Ильич Скачать
1 | 0
Фильмы [HD 720p, 1080p] (Звук Cam, VO, DVO) [ 9.4 GB ] Тихая ночь смертельная ночь / Silent Night Deadly Night [1984 BDRip 1080p by msltel] AVO msltel Скачать
1 | 0

28-11-2019 20:33  

Отключить всю рекламу на сайте

    Дорогой пользователь! Огромная просьба, поблагодарите релизера, оцените раздачу и оставьте свои комментарий, если Вы скачали Тихая ночь, смертельная ночь через торрент бесплатно! Внесите свою лепту в развитие PiratBit!
    Комментировать посты могут только пользователи прошедшие не сложную регистрацию
    Показать сообщения:    

    Тихая ночь, смертельная ночь через торрент
    Скачать бесплатно Тихая ночь, смертельная ночь
    Тихая ночь, смертельная ночь скачать торрент
    Тихая ночь, смертельная ночь смотреть онлайн
    Cкачать фильм Тихая ночь, смертельная ночь бесплатно
    Тихая ночь, смертельная ночь скачать торрент в хорошем качестве
    Тихая ночь, смертельная ночь смотреть онлайн бесплатно в хорошем качестве


    Вы не можете начинать темы
    Вы не можете отвечать на сообщения
    Вы не можете редактировать свои сообщения
    Вы не можете удалять свои сообщения
    Вы не можете голосовать в опросах
    Вы не можете прикреплять файлы к сообщениям
    Вы можете скачивать файлы