Ссылка на приватное зеркало нашего сайта всего за 1$. Внимание количество ограничено!!!

2 сезон

iTunes

1 сезон

1

iTunes

iTunes

iTunes

1 сезон

RePack

30

ИГРА 18+

pack

ВАЖНО

!!Акция!!

Alien_RageХит недели

RePack

MK11
pack

Забери бонус

RePack

jed

!!Акция!!

Alien_Rage

RePack

fifa19

RePack

Assassins Creed: Odyssey

RePack

NEED FOR SPEED™ PAYBACK

4 сезон

9 сезон

Бесстыжие 9 сезон

Все сериалы

все сериалы на PB.wtf

RePack

FAR CRY 5
  

Сердце Ангела / Серии: 1-8 из 8 (Илья Казанков) [2016,детектив, DVDRip-AVC] pb.wtf

Сердце Ангела через торрент pb.wtf

Размер: 4.93 GB | Добавлен: 4 года 6 мес. назад | Торрент скачан:805 раз
Скачать  

04-04-2016 12:38 Сердце Ангела Скачать торрент  

Сердце Ангела




Год выпуска: 2015
Производство: Россия, Кинокомпания DT production
Жанр: Детектив
Продолжительность: 00:50:00
Субтитры: нет




Режиссёр: Илья Казанков



В ролях: Михаил Пореченков, Андрей Мерзликин, Пётр Фёдоров, Гала Самойлова, Екатерина Климова, Алёна Бабенко, Юрий Ицков, Наталья Ткаченко, Олег Алмазов, Светлана Смирнова-Марцинкевич, Данила Шевченко, Константин Фисенко, Евгений Бойцов (III), Татьяна Ткач, Сергей Кудрявцев, Оксана Базилевич, Ульяна Леонова, Сергей Троев, Алина Кикеля, Елена Вожакина



Описание: Коррумпированному полицейскому, оказавшемуся на грани смерти, пересаживают сердце донора – честного пожарного.
Постепенно он превращается в другого человека, и ему кажется, что он больше не может совершать черные дела … Ведь теперь у него другое сердце.









Качество: DVDRip-AVC
Формат: MKV
Видео кодек: H.264
Аудио кодек: AC3
Видео: MPEG-4 AVC, 720х400,25fps,~1794 Кбит/сек,Bits/Pixel 0.222
Аудио: AAC, 48 kHz, ~192 Kbps, 2 канала



Общее
Уникальный идентификатор : 213006705964969333793861146549987961883 (0xA03F996E2BB5FCC799BFA693E779EC1B)
Полное имя : I:\Сердце Ангела\Сердце Ангела_02 серия rip by_Aleksan55.mkv
Формат : Matroska
Версия формата : Version 2
Размер файла : 638 Мбайт
Продолжительность : 49 м.
Общий поток : 1794 Кбит/сек
Дата кодирования : UTC 2016-04-03 23:16:33
Программа кодирования : mkvmerge v7.8.0 ('River Man') 32bit built on Apr 3 2015 12:11:22
Библиотека кодирования : libebml v1.3.1 + libmatroska v1.4.2

Видео
Идентификатор : 1
Формат : AVC
Формат/Информация : Advanced Video Codec
Профиль формата : High@L4.1
Параметр CABAC формата : Да
Параметр ReFrames формата : 12 кадров
Идентификатор кодека : V_MPEG4/ISO/AVC
Продолжительность : 49 м.
Битрейт : 1600 Кбит/сек
Ширина : 720 пикселей
Высота : 400 пикселей
Соотношение сторон : 16:9
Режим частоты кадров : Постоянный
Частота кадров : 25,000 кадров/сек
Цветовое пространство : YUV
Субдискретизация насыщенности : 4:2:0
Битовая глубина : 8 бит
Тип развёртки : Прогрессивная
Бит/(Пиксели*Кадры) : 0.222
Размер потока : 557 Мбайт (87%)
Библиотека кодирования : x264 core 146 r2538 121396c
Настройки программы : cabac=1 / ref=12 / deblock=1:-2:-2 / analyse=0x3:0x103 / me=umh / subme=9 / psy=1 / psy_rd=1.00:0.25 / mixed_ref=0 / me_range=32 / chroma_me=1 / trellis=2 / 8x8dct=1 / cqm=0 / deadzone=6,6 / fast_pskip=1 / chroma_qp_offset=-4 / threads=2 / lookahead_threads=1 / sliced_threads=0 / nr=0 / decimate=0 / interlaced=0 / bluray_compat=0 / constrained_intra=0 / bframes=12 / b_pyramid=2 / b_adapt=1 / b_bias=0 / direct=3 / weightb=1 / open_gop=0 / weightp=2 / keyint=250 / keyint_min=25 / scenecut=40 / intra_refresh=0 / rc_lookahead=40 / rc=2pass / mbtree=1 / bitrate=1600 / ratetol=1.0 / qcomp=0.80 / qpmin=0 / qpmax=69 / qpstep=4 / cplxblur=20.0 / qblur=0.5 / ip_ratio=1.10 / aq=1:1.00
Default : Да
Forced : Нет
Цветовой диапазон : Limited
Основные цвета : BT.601 PAL
Характеристики трансфера : BT.470 System B, BT.470 System G
Коэффициенты матрицы : BT.601

Аудио
Идентификатор : 2
Формат : AC-3
Формат/Информация : Audio Coding 3
Расширение режима : CM (complete main)
Параметр Endianness формата : Big
Идентификатор кодека : A_AC3
Продолжительность : 49 м.
Вид битрейта : Постоянный
Битрейт : 192 Кбит/сек
Каналы : 2 канала
Расположение каналов : Front: L R
Частота : 48,0 КГц
Метод сжатия : С потерями
Размер потока : 68,3 Мбайт (11%)
Default : Да
Forced : Нет


Рекламы нет.pb.wtf



Скачать Сердце Ангела через торрент http://s09.radikal.ru/i182/1604/91/1b16bddc5afd.jpg Скачать фильм Сердце Ангела через торрент бесплантно в хорошем качестве Описание: Коррумпированному полицейскому, оказавшемуся на грани смерти, пересаживают сердце донора – честного пожарного.Постепенно он ... 9.3 10 19
Торрент: Зарегистрирован [2016-04-04 12:38] · скачан: 805 раз
Статус: √ проверено
Размер: 4.93 GB
Как cкачать? Как скачать Сердце Ангела через торрент | qTorrent

% Раздел Тема Автор DL S | L
Наши сериалы [ 4.35 GB ] Сердце ангела / Сезон: 1 / Серии: 1-8 из 8 [2016 HDTVRip] bober100 Скачать
1 | 0
Наши сериалы [ 6.06 GB ] Сердце ангела / Сезон: 1 / Серии: 1-8 из 8 [2016 HDTVRip-AVC] bober100 Скачать
1 | 0
Наши сериалы [ 23.55 GB ] Сердце ангела / Сезон: 1 / Серии: 1-8 из 8 [2016 HDTV 1080i] bober100 Скачать
1 | 0
Наши сериалы [ 12.83 GB ] Сердце ангела / Сезон: 1 / Серии: 1-8 из 8 [2016 HDTVRip 720p] bober100 Скачать
1 | 0


Последний раз редактировалось: aleksan55 (2016-04-06 11:34), всего редактировалось 1 раз

28-11-2019 20:33  

Отключить всю рекламу на сайте

04-04-2016 15:38 Сердце Ангела Скачать торрент  

Так ,это 2016 года сериал ,или 2015 ?pb.wtf



06-04-2016 09:10 Сердце Ангела Скачать торрент  

мега пипец
завалил деваху -ну да он убийца , но он же пытается бороться с оборотнями в погонах.
пялят любовниц на право и на лево при живых женах!!+1
я взял в заложники прокурора , а пох всем- на меня давили(мне надо к министру -только по записи-а ну тогда бах бах и опаньки попадаешь на прием)
ну и дико ржал: ну у вас же демократия , в милицию мы не пойдем потому что не все такие честные как ты, поэтому пойдем на тв-эпик фейл.
сценарист в запое был , а режиссер толи "петросянит", то ли "задорлянит".pb.wtf



    Дорогой пользователь! Огромная просьба, поблагодарите релизера, оцените раздачу и оставьте свои комментарий, если Вы скачали Сердце Ангела через торрент бесплатно! Внесите свою лепту в развитие PiratBit!
    Комментировать посты могут только пользователи прошедшие не сложную регистрацию
    Показать сообщения:    

    Сердце Ангела через торрент
    Скачать бесплатно Сердце Ангела
    Сердце Ангела скачать торрент
    Сердце Ангела смотреть онлайн
    Cкачать фильм Сердце Ангела бесплатно
    Сердце Ангела скачать торрент в хорошем качестве
    Сердце Ангела смотреть онлайн бесплатно в хорошем качестве


    Вы не можете начинать темы
    Вы не можете отвечать на сообщения
    Вы не можете редактировать свои сообщения
    Вы не можете удалять свои сообщения
    Вы не можете голосовать в опросах
    Вы не можете прикреплять файлы к сообщениям
    Вы можете скачивать файлы