Ссылка на приватное зеркало нашего сайта всего за 1$. Внимание количество ограничено!!!

2 сезон

iTunes

1 сезон

1

2 сезон

2 сезон

iTunes

1 сезон

RePack

30

Ultimate

ВАЖНО

ИГРА 18+

pack

RePack

MK11
pack

Забери бонус

RePack

jed

!!Акция!!

Alien_Rage

RePack

fifa19

RePack

Assassins Creed: Odyssey

RePack

NEED FOR SPEED™ PAYBACK

4 сезон

9 сезон

Бесстыжие 9 сезон

Все сериалы

все сериалы на PB.wtf

RePack

FAR CRY 5
  

PPV WWE WrestleMania 32 (Русская версия от 545TV) [03.04.2016, Рестлинг, WEB-DL 720p] pb.wtf

PPV WWE WrestleMania 32 через торрент pb.wtf

Размер: 9.48 GB | Добавлен: 4 года 7 мес. назад | Торрент скачан:53 раза
Скачать  

05-04-2016 03:42 PPV WWE WrestleMania 32 Скачать торрент  

PPV WWE WrestleMania 32 (Русская версия от 545TV)
скриншот  





Дата выпуска: 03.04.2016

Участники: WWE Superstars

Вид спорта: Рестлинг

Продолжительность: 04:52:57

Комментарий: Любительский (многоголосый)

Язык комментариев: Русский

Комментаторы: Олег Манылов и Никита Петрушин / Валентин Нарчук и Александр Барыбин




Описание: WWE WrestleMania 32 Русская версия от 545TV.
+ аудиодорожка.

Дата: 03.04.2016.
Место проведения: Арлингтон, Техас, США.
Арена: AT&T Stadium.
Темы: "My House" by Flo Rida, "Hello Friday" by Flo Rida feat. Jason Derulo, "Hail to the King" by Avenged Sevenfold,
"Sympathy for the Devil" by Motörhead, "Oh No" by Goodbye June.
Wrestlemania — легендарное шоу, которое считается главным шоу в календарном году. Именно на Рестлмании творится история, побиваются рекорды и проходят самые важные и самые эмоциональные матчи. На этой странице будет доступна Рестлмания 32 онлайн на русском языке в прямом эфире. Что же нам покажет компания в э том году? Точно можно сказать, что на шоу будет Дуэйн Джонсон, появление которого было объявлено еще ранее. Что же случится с титулом Трипл Эйча? Сменится ли у нас чемпион? На Рестлмании может случится абсолютно всё!
Приятного просмотра!





Качество: WEB-DL 720p

Формат: MP4

Видео кодек: H.264

Аудио кодек: AAC

Видео: MPEG4 Video (H264) 1280x720 29.97fps 4371kbps
Аудио#1: AAC 44100Hz stereo 128kbps
Аудио#2: AAC 44100Hz stereo 128kbps




Format : MPEG-4
Format profile : Base Media
Codec ID : isom
File size : 9.22 GiB
Duration : 4h 52mn
Overall bit rate mode : Variable
Overall bit rate : 4 504 Kbps
Encoded date : UTC 2016-04-03 16:31:35
Tagged date : UTC 2016-04-03 16:31:35
Writing application : Yamb 2.1.0.0 [http://yamb.unite-video.com]

Video
ID : 1
Format : AVC
Format/Info : Advanced Video Codec
Format profile : High@L4
Format settings, CABAC : Yes
Format settings, ReFrames : 4 frames
Codec ID : avc1
Codec ID/Info : Advanced Video Coding
Duration : 4h 52mn
Bit rate mode : Constant
Bit rate : 4 372 Kbps
Maximum bit rate : 10.0 Mbps
Width : 1 280 pixels
Height : 720 pixels
Display aspect ratio : 16:9
Frame rate mode : Constant
Frame rate : 29.970 fps
Color space : YUV
Chroma subsampling : 4:2:0
Bit depth : 8 bits
Scan type : Progressive
Bits/(Pixel*Frame) : 0.158
Stream size : 8.95 GiB (97%)
Tagged date : UTC 2016-04-03 16:37:15

Audio
ID : 2
Format : AAC
Format/Info : Advanced Audio Codec
Format profile : LC
Codec ID : 40
Duration : 4h 52mn
Duration_FirstFrame : 70ms
Bit rate mode : Variable
Bit rate : 128 Kbps
Maximum bit rate : 228 Kbps
Channel(s) : 2 channels
Channel positions : Front: L R
Sampling rate : 44.1 KHz
Compression mode : Lossy
Stream size : 268 MiB (3%)
Encoded date : UTC 2016-04-03 16:37:08
Tagged date : UTC 2016-04-03 16:37:15

Text
ID : 1-CC1
Format : EIA-608
Muxing mode : SCTE 128 / DTVCC Transport
Muxing mode, more info : Muxed in Video #1
Duration : 4h 52mn
Bit rate mode : Constant
Stream size : 0.00 Byte (0%)
Encoded stream size : 0.00 Byte (0%)

Dream Match:
AJ Styles vs. Chris Jericho






Battle for Tag Team Supremacy:
The New Day vs. The League of Nations






Intercontinental Championship Ladder Match:
Intercontinental Champion Kevin Owens vs. Sami Zayn vs. Dolph Ziggler vs. Zack Ryder vs. Sin Cara vs. The Miz vs. Stardust






Divas Championship Triple Threat Match:
Divas Champion Charlotte vs. Becky Lynch vs. Sasha Banks






8The 3rd annual Andre the Giant Memorial Battle Royal






Hell in a Cell Match:
Shane McMahon vs. The Undertaker






No Holds Barred Street Fight:
Dean Ambrose vs. Brock Lesnar






WWE World Heavyweight Title Match:
WWE World Heavyweight Champion Triple H vs. Roman Reigns


pb.wtf



Скачать PPV WWE WrestleMania 32 через торрент http://pic1.kartinco.top/images/10/frh41.jpg Скачать фильм PPV WWE WrestleMania 32 через торрент бесплантно в хорошем качестве Описание: WWE WrestleMania 32 Русская от 545TV.+ аудиодорожка.Дата: 201Место проведения: Арлингтон, Техас, США.Арена: AT&T ... 10 10 1
Info! Золотая раздача, скачанное не засчитывается.
Торрент: Зарегистрирован [2016-04-05 03:42] · скачан: 53 раз
Статус: √ проверено
Размер: 9.48 GB
Как cкачать? Как скачать PPV WWE WrestleMania 32 через торрент | qTorrent

28-11-2019 20:33  

Отключить всю рекламу на сайте

05-04-2016 03:43 PPV WWE WrestleMania 32 Скачать торрент  

Приятного просмотра!
pb.wtf



    Дорогой пользователь! Огромная просьба, поблагодарите релизера, оцените раздачу и оставьте свои комментарий, если Вы скачали PPV WWE WrestleMania 32 через торрент бесплатно! Внесите свою лепту в развитие PiratBit!
    Комментировать посты могут только пользователи прошедшие не сложную регистрацию
    Показать сообщения:    

    PPV WWE WrestleMania 32 через торрент
    Скачать бесплатно PPV WWE WrestleMania 32
    PPV WWE WrestleMania 32 скачать торрент
    PPV WWE WrestleMania 32 смотреть онлайн
    Cкачать фильм PPV WWE WrestleMania 32 бесплатно
    PPV WWE WrestleMania 32 скачать торрент в хорошем качестве
    PPV WWE WrestleMania 32 смотреть онлайн бесплатно в хорошем качестве


    Вы не можете начинать темы
    Вы не можете отвечать на сообщения
    Вы не можете редактировать свои сообщения
    Вы не можете удалять свои сообщения
    Вы не можете голосовать в опросах
    Вы не можете прикреплять файлы к сообщениям
    Вы можете скачивать файлы