новый адрес
Мега распродажа FORZA HORIZON 4 ULTIMATE+ВСЕ DLC+ОНЛАЙН всего за 499р. 349 руб. (супер цена). Внимание количество ограничено!!!

iTunes

1+1

iTunes

мы

iTunes

1

iTunes

Чернобыль

iTunes

Ральф против интернета

Лицензия

ПШазам

Лицензия

Оно 2

Лицензия

30
pack

ВАЖНО

!!Акция!!

Alien_RageХит недели

RePack

Resident Evil 21

ИГРА 18+

pack

RePack

Metro:Exodus

!!Акция!!

Alien_Rage

RePack

fifa19

RePack

Assassins Creed: Odyssey

RePack

NEED FOR SPEED™ PAYBACK

3 сезон

9 сезон

Бесстыжие 9 сезон

Все сериалы

все сериалы на PB.wtf

RePack

FAR CRY 5
Ребята, катастрофически не хватает 1900р. для оплаты серверов за Октябрь (всвязи с блокировками трафик упал в 3 раза), 1-2р., выручайте.
  

Серебристая пыль (Абрам Роом) [1953, СССР, драма, комедия, DVDRip от AVP Studio] pb.wtf

Серебристая пыль через торрент pb.wtf

Размер: 1.46 GB | Добавлен: 3 года 7 мес. назад | Торрент скачан:11 раз
Скачать  

05-04-2016 07:34 Серебристая пыль Скачать торрент  

Серебристая пыль
Страна: СССР
Производство: Мосфильм

Жанр: драма, комедия
Год выпуска: 19 октября 1953
Продолжительность: 01:37:59

Перевод: Не требуется
Cубтитры: нет
Оригинальная аудиодорожка: русский

Режиссер: Абрам Роом

В ролях:
Михаил Болдуман, Софья Пилявская, Валентина Ушакова, Николай Тимофеев, Всеволод Ларионов, Владимир Белокуров, Ростислав Плятт, Григорий Кириллов, Александр Ханов, Валерий Лекарев, Геннадий Юдин, Зана Занони, Д. Колмогоров, Александр Пелевин, Лидия Смирнова, Осип Абдулов...
Полный список актёров

Описание:
Экранизация пьесы А.Якобсона "Шакалы".
Американский ученый профессор Стил изобретает мощное оружие массового уничтожения - радиоактивную серебристо-серую пыль. Вокруг этого избретения разгорается ожесточенная борьба двух военно-промышленных трестов-гигантов, одна из которых подкупает гангстеров - и те убивают Стила, назначившего непомерно высокую цену за свое изобретение. Его старший сын Гарри придает гласности чудовищное изобретение отца, а младший сын, член фашистской партии, становится первой жертвой смертоносного действия серебристой пыли.

Источник: DVD5 R5
Качество видео: DVDRip
Формат видео: AVI

Видео: 688x512 (4:3), 25 fps, XviD ~ 1929 kbps avg, 0.219 bit/pixel
Аудио: 48 kHz, Dolby Digital AC3 2.0, 192 kbps

Раздача от:
Общее
Полное имя : Serebristaya.pyl.1953.DVDRip_[New-team]_by_AVP_Studio.avi
Формат : AVI
Формат/Информация : Audio Video Interleave
Размер файла : 1,46 Гбайт
Продолжительность : 1 ч. 37 м.
Общий поток : 2131 Кбит/сек
Программа кодирования : VirtualDubMod 1.5.10.3 | www.virtualdub-fr.org || (build 2550/release)
Библиотека кодирования : VirtualDubMod build 2550/release

Видео
Идентификатор : 0
Формат : MPEG-4 Visual
Профиль формата : Advanced Simple@L5
Параметр BVOP формата : 1
Параметр QPel формата : Нет
Параметр GMC формата : Без точки перехода
Параметр матрицы формата : Выборочная
Идентификатор кодека : XVID
Идентификатор кодека/Подсказка : XviD
Продолжительность : 1 ч. 37 м.
Битрейт : 1929 Кбит/сек
Ширина : 688 пикселей
Высота : 512 пикселей
Соотношение сторон : 4:3
Частота кадров : 25,000 кадров/сек
Цветовое пространство : YUV
Субдискретизация насыщенности : 4:2:0
Битовая глубина : 8 бит
Тип развёртки : Прогрессивная
Метод сжатия : С потерями
Бит/(Пиксели*Кадры) : 0.219
Размер потока : 1,32 Гбайт (91%)
Библиотека кодирования : XviD 1.2.1 (UTC 2008-12-04)

Аудио
Идентификатор : 1
Формат : AC-3
Формат/Информация : Audio Coding 3
Расширение режима : CM (complete main)
Параметр Endianness формата : Big
Идентификатор кодека : 2000
Продолжительность : 1 ч. 37 м.
Вид битрейта : Постоянный
Битрейт : 192 Кбит/сек
Каналы : 2 канала
Расположение каналов : Front: L R
Частота : 48,0 КГц
Частота кадров : 31,250 кадров/сек (1536 spf)
Метод сжатия : С потерями
Размер потока : 135 Мбайт (9%)
Выравнивание : Разделение по промежуткам
Продолжительность промежутка : 40 мс. (1,00 видеокадр)
Время предзагрузки промежутка : 500 мс
pb.wtf



Скачать Серебристая пыль через торрент http://s011.radikal.ru/i318/1604/02/5f88178c2480.png Скачать фильм Серебристая пыль через торрент бесплантно в хорошем качестве Описание:Экранизация пьесы А.Якобсона "Шакалы".Американский ученый профессор Стил изобретает мощное оружие массового уничтожения - ... 10 10 1
Info! Золотая раздача, скачанное не засчитывается.
Торрент: Зарегистрирован [2016-04-05 07:34] · скачан: 11 раз
Статус: √ проверено
Размер: 1.46 GB
Как cкачать? Как скачать Серебристая пыль через торрент | qTorrent

% Раздел Тема Автор DL S | L
Кино СССР [ 1.46 GB ] Серебристая пыль [1953 СССР DVDRip-AVC от AVP Studio] AVP Studio Скачать
1 | 0
Кино СССР [ 744 MB ] Серебристая пыль [1953 СССР DVDRip от AVP Studio] AVP Studio Скачать
1 | 0


>> Регистрируемся здесь <<






Отзывы и комментарии о схеме читаем и пишем здесь: ---> Отзывы и комментарии о схеме

Новые благодарочки в телеграм довольных пользователей:
скриншот   скриншот   скриншот   скриншот   скриншот
    Дорогой пользователь! Огромная просьба, поблагодарите релизера, оцените раздачу и оставьте свои комментарий, если Вы скачали Серебристая пыль через торрент бесплатно! Внесите свою лепту в развитие PiratBit!
    Комментировать посты могут только пользователи прошедшие не сложную регистрацию
    Показать сообщения:    

    Серебристая пыль через торрент
    Скачать бесплатно Серебристая пыль
    Серебристая пыль скачать торрент
    Серебристая пыль смотреть онлайн
    Cкачать фильм Серебристая пыль бесплатно
    Серебристая пыль скачать торрент в хорошем качестве
    Серебристая пыль смотреть онлайн бесплатно в хорошем качестве


    Вы не можете начинать темы
    Вы не можете отвечать на сообщения
    Вы не можете редактировать свои сообщения
    Вы не можете удалять свои сообщения
    Вы не можете голосовать в опросах
    Вы не можете прикреплять файлы к сообщениям
    Вы можете скачивать файлы