новый адрес
Ссылка на приватное зеркало всего за 1$. Внимание количество ограничено!!!

iTunes

1+1

iTunes

мы

iTunes

1

iTunes

Чернобыль

iTunes

Ральф против интернета

Лицензия

ПШазам

Лицензия

Оно 2

Лицензия

30
pack

Вам бонус

ВАЖНО

!!Акция!!

Alien_RageХит недели

RePack

Resident Evil 21

ИГРА 18+

pack

RePack

jed

!!Акция!!

Alien_Rage

RePack

fifa19

RePack

Assassins Creed: Odyssey

RePack

NEED FOR SPEED™ PAYBACK

3 сезон

9 сезон

Бесстыжие 9 сезон

Все сериалы

все сериалы на PB.wtf

RePack

FAR CRY 5
Ребята, катастрофически не хватает 1900р. для оплаты серверов за Октябрь (всвязи с блокировками трафик упал в 3 раза), 1-2р., выручайте.
  

Укротительница тигров (Александр Ивановский, Надежда Кошеверова) [1954, СССР, мелодрама, комедия DVDRip от AVP Studio] pb.wtf

Укротительница тигров через торрент pb.wtf

Размер: 1.46 GB | Добавлен: 3 года 7 мес. назад | Торрент скачан:20 раз
Скачать  

05-04-2016 08:37 Укротительница тигров Скачать торрент  

Укротительница тигров
Страна: СССР
Производство: Ленфильм
Жанр: мелодрама, комедия
Год выпуска: 1954
Продолжительность: 01:35:24

Перевод: не требуется
Оригинальная аудиодорожка: русский
Cубтитры: нет

Режиссер: Александр Ивановский, Надежда Кошеверова

В ролях: Людмила Касаткина, Павел Кадочников, Леонид Быков, Павел Суханов, Сергей Филиппов, Татьяна Пельтцер, Александр Орлов, Константин Сорокин, Гликерия Богданова-Чеснокова, Нина Ургант...

Описание:
Своей беззаветной влюбленностью в цирковое искусство Леночка Воронцова смогла «заразить» спортсмена-мотогонщика Федора Ермолаева. Они создают новаторский номер «мотогонки под куполом цирка».
Федор Ермолаев полюбил Леночку. Она, готова ответить ему взаимностью, но в последний момент отказывается от интересных гастролей, потому что руководство предложило ей стать дрессировщицей любимых тигров. Влюбленные расстаются, но не навсегда. Узнав о предстоящей премьере Леночкиного номера, Ермолаев на мотоцикле мчится через полстраны и успевает обнять любимую после успешного дебюта…

Исходник: DVD5 R5
Тип релиза: DVDRip
Контейнер: AVI

Видео: 704x528 (4:3), 25 fps, XviD ~ 1728 kbps avg, 0.186 bit/pixel
Аудио: 48 kHz, Dolby AC3 5.1, 448 kbps

Раздача от:
Общее
Полное имя : Ukrotitel'nica.tigrov.1954.DVDRip_[Youtracker]_by_AVP Studio.avi
Формат : AVI
Формат/Информация : Audio Video Interleave
Размер файла : 1,46 Гбайт
Продолжительность : 1 ч. 35 м.
Общий поток : 2186 Кбит/сек
Программа кодирования : VirtualDubMod 1.5.10.3 | www.virtualdub-fr.org || (build 2550/release)
Библиотека кодирования : VirtualDubMod build 2550/release

Видео
Идентификатор : 0
Формат : MPEG-4 Visual
Профиль формата : Advanced Simple@L5
Параметр BVOP формата : 1
Параметр QPel формата : Нет
Параметр GMC формата : Без точки перехода
Параметр матрицы формата : Выборочная
Идентификатор кодека : XVID
Идентификатор кодека/Подсказка : XviD
Продолжительность : 1 ч. 35 м.
Битрейт : 1728 Кбит/сек
Ширина : 704 пикселя
Высота : 528 пикселей
Соотношение сторон : 4:3
Частота кадров : 25,000 кадров/сек
Цветовое пространство : YUV
Субдискретизация насыщенности : 4:2:0
Битовая глубина : 8 бит
Тип развёртки : Прогрессивная
Метод сжатия : С потерями
Бит/(Пиксели*Кадры) : 0.186
Размер потока : 1,15 Гбайт (79%)
Библиотека кодирования : XviD 65

Аудио
Идентификатор : 1
Формат : AC-3
Формат/Информация : Audio Coding 3
Расширение режима : CM (complete main)
Идентификатор кодека : 2000
Продолжительность : 1 ч. 35 м.
Вид битрейта : Постоянный
Битрейт : 448 Кбит/сек
Каналы : 6 каналов
Расположение каналов : Front: L C R, Side: L R, LFE
Частота : 48,0 КГц
Битовая глубина : 16 бит
Метод сжатия : С потерями
Размер потока : 306 Мбайт (20%)
Выравнивание : Разделение по промежуткам
Продолжительность промежутка : 40 мс. (1,00 видеокадр)
Время предзагрузки промежутка : 500 мс
pb.wtf



Скачать Укротительница тигров через торрент http://s2.hostingkartinok.com/uploads/images/2013/02/1eef2a73d08ffc135ea824008092b9f7.png Скачать фильм Укротительница тигров через торрент бесплантно в хорошем качестве Описание:Своей беззаветной влюбленностью в цирковое искусство Леночка Воронцова смогла «заразить» спортсмена-мотогонщика Федора Ермолаева. ... 10 10 2
Info! Золотая раздача, скачанное не засчитывается.
Торрент: Зарегистрирован [2016-04-05 08:37] · скачан: 20 раз
Статус: √ проверено
Размер: 1.46 GB
Как cкачать? Как скачать Укротительница тигров через торрент | qTorrent

% Раздел Тема Автор DL S | L
Кино СССР [ 1.46 GB ] Укротительница тигров [1954 СССР DVDRip-AVC от AVP Studio] AVP Studio Скачать
1 | 0
Кино СССР [ 745 MB ] Укротительница тигров [1954 СССР DVDRip от AVP Studio] AVP Studio Скачать
1 | 0
    Дорогой пользователь! Огромная просьба, поблагодарите релизера, оцените раздачу и оставьте свои комментарий, если Вы скачали Укротительница тигров через торрент бесплатно! Внесите свою лепту в развитие PiratBit!
    Комментировать посты могут только пользователи прошедшие не сложную регистрацию
    Показать сообщения:    

    Укротительница тигров через торрент
    Скачать бесплатно Укротительница тигров
    Укротительница тигров скачать торрент
    Укротительница тигров смотреть онлайн
    Cкачать фильм Укротительница тигров бесплатно
    Укротительница тигров скачать торрент в хорошем качестве
    Укротительница тигров смотреть онлайн бесплатно в хорошем качестве


    Вы не можете начинать темы
    Вы не можете отвечать на сообщения
    Вы не можете редактировать свои сообщения
    Вы не можете удалять свои сообщения
    Вы не можете голосовать в опросах
    Вы не можете прикреплять файлы к сообщениям
    Вы можете скачивать файлы