Ссылка на приватное зеркало нашего сайта всего за 1$. Внимание количество ограничено!!!

2 сезон

iTunes

1 сезон

1

iTunes

iTunes

iTunes

1 сезон

RePack

30

ИГРА 18+

pack

ВАЖНО

!!Акция!!

Alien_RageХит недели

RePack

MK11
pack

Забери бонус

RePack

jed

!!Акция!!

Alien_Rage

RePack

fifa19

RePack

Assassins Creed: Odyssey

RePack

NEED FOR SPEED™ PAYBACK

4 сезон

9 сезон

Бесстыжие 9 сезон

Все сериалы

все сериалы на PB.wtf

RePack

FAR CRY 5
  

Кодекс вора / The Code (Мими Ледер / Mimi Leder) [2008, боевик, триллер, криминал, BDRip 720p от potroks] DUB, DVO, MVO pb.wtf

Кодекс вора через торрент pb.wtf

Размер: 5.74 GB | Добавлен: 4 года 6 мес. назад | Торрент скачан:294 раза
Скачать  

06-04-2016 06:43 Кодекс вора Скачать торрент  

Кодекс вора / The Code
«Никогда не доверяй вору»
Год выпуска: 2008
Страна: США, Германия / Millennium Films...
Жанр: боевик, триллер, криминал
Продолжительность: 01:43:44
Перевод: Дубляж, Профессиональный (многоголосый), Профессиональный (двухголосый)
Субтитры: русские , английские (Full + SDH)
Навигация по главам: есть
Режиссер: Мими Ледер / Mimi Leder
В ролях:

Морган Фриман (Ripley), Антонио Бандерас (Gabriel), Рада Митчелл (Alex), Роберт Форстер (Lt. Weber), Раде Шербеджия (Nicky / Victor), Марчел Юреш (Zykov), Том Харди (Michaels), Кори Джонсон (Voutiritsas), Джеррит Вурен (Bakker), Чуки Венис (Transit Cop #1), Атанас Сребрев (Transit Cop #2), Даррел Лас Куэвас (Transit Cop #3)
Описание: Кит Рипли, опытный вор из Нью-Йорка, приглашает из Майами молодого, но уже проявившего себя «коллегу», Габриэля Мартина. Рипли нужен напарник для кражи двух старинных и очень ценных яиц Фаберже. Они вместе с другими драгоценностями российской династии Романовых хранятся в хорошо защищенном сейфе. Каждое яйцо на черном рынке стоит двадцать миллионов долларов.
Украв раритет, Рипли планирует вернуть долг криминальному боссу Ники. Сумеет ли вор расплатиться по счетам, если в планы «преступной парочки» хочет вмешаться лейтенант полиции Вебер?

Качество: BDRip 720p
Формат: MKV
Видео кодек: AVC
Аудио кодек: AC3
Видео: 1280x544 (2.35:1), 6093 kbps, 23,976 fps, 0,365 bit/pixel
Аудио №1: AC3 / 2.0 / 48 kHz / 192 kbps / 16 bit | DUB - Рен ТВ
Аудио №2: AC3 / 5.1 / 48 kHz / 640 kbps / 16 bit | DVO - R5
Аудио №3: AC3 / 2.0 / 48 kHz / 192 kbps / 16 bit | MVO - ВГТРК
Аудио №4: AC3 / 2.0 / 48 kHz / 192 kbps / 16 bit | UKR - MVO - ICTV
Аудио №5: AC3 / 5.1 / 48 kHz / 640 kbps / 16 bit | ENG

Код:

Общее
Уникальный идентификатор : 187730240577145165240203550736483607642 (0x8D3B87784E02307F82C863F581BFE45A)
Полное имя : Kodeks.Vora.2009.3xRus.Ukr.Eng.BDRip.720p.by_potroks.mkv
Формат : Matroska
Версия формата : Version 4 / Version 2
Размер файла : 5,74 Гбайт
Продолжительность : 1 ч. 43 м.
Общий поток : 7927 Кбит/сек
Название фильма : The Code (2009)
Дата кодирования : UTC 2016-03-29 09:11:17
Программа кодирования : mkvmerge v5.9.0 ('On The Loose') built on Dec 15 2012 16:39:58
Библиотека кодирования : libebml v1.3.0 + libmatroska v1.4.0

Видео
Идентификатор : 1
Формат : AVC
Формат/Информация : Advanced Video Codec
Профиль формата : High@L4.1
Параметр CABAC формата : Да
Параметр ReFrames формата : 9 кадров
Идентификатор кодека : V_MPEG4/ISO/AVC
Продолжительность : 1 ч. 43 м.
Битрейт : 6093 Кбит/сек
Ширина : 1280 пикселей
Высота : 544 пикселя
Соотношение сторон : 2,35:1
Режим частоты кадров : Постоянный
Частота кадров : 23,976 кадра/сек
Цветовое пространство : YUV
Субдискретизация насыщенности : 4:2:0
Битовая глубина : 8 бит
Тип развёртки : Прогрессивная
Бит/(Пиксели*Кадры) : 0.365
Размер потока : 4,29 Гбайт (75%)
Заголовок : potroks
Библиотека кодирования : x264 core 148 r2665M a01e339
Настройки программы : cabac=1 / ref=9 / deblock=1:-3:-3 / analyse=0x3:0x133 / me=umh / subme=11 / psy=1 / psy_rd=0.96:0.00 / mixed_ref=1 / me_range=48 / chroma_me=1 / trellis=2 / 8x8dct=1 / cqm=0 / deadzone=21,11 / fast_pskip=0 / chroma_qp_offset=-2 / threads=9 / lookahead_threads=2 / sliced_threads=0 / nr=0 / decimate=1 / interlaced=0 / bluray_compat=0 / constrained_intra=0 / bframes=10 / b_pyramid=2 / b_adapt=2 / b_bias=0 / direct=3 / weightb=1 / open_gop=0 / weightp=2 / keyint=240 / keyint_min=23 / scenecut=40 / intra_refresh=0 / rc=2pass / mbtree=0 / bitrate=6093 / ratetol=1.0 / qcomp=0.70 / qpmin=0 / qpmax=69 / qpstep=4 / cplxblur=20.0 / qblur=0.5 / ip_ratio=1.35 / pb_ratio=1.25 / aq=1:0.80
Язык : English
Default : Да
Forced : Нет
Цветовой диапазон : Limited
Основные цвета : BT.709
Характеристики трансфера : BT.709
Коэффициенты матрицы : BT.709

Аудио #1
Идентификатор : 2
Формат : AC-3
Формат/Информация : Audio Coding 3
Расширение режима : CM (complete main)
Параметр Endianness формата : Big
Идентификатор кодека : A_AC3
Продолжительность : 1 ч. 43 м.
Вид битрейта : Постоянный
Битрейт : 192 Кбит/сек
Каналы : 2 канала
Расположение каналов : Front: L R
Частота : 48,0 КГц
Метод сжатия : С потерями
Размер потока : 142 Мбайт (2%)
Заголовок : Dub | DD 2.0 @ 192 kbps - Ren TV
Язык : Russian
Default : Да
Forced : Нет

Аудио #2
Идентификатор : 3
Формат : AC-3
Формат/Информация : Audio Coding 3
Расширение режима : CM (complete main)
Параметр Endianness формата : Big
Идентификатор кодека : A_AC3
Продолжительность : 1 ч. 43 м.
Вид битрейта : Постоянный
Битрейт : 640 Кбит/сек
Каналы : 6 каналов
Расположение каналов : Front: L C R, Side: L R, LFE
Частота : 48,0 КГц
Метод сжатия : С потерями
Размер потока : 475 Мбайт (8%)
Заголовок : DVO | DD 5.1 @ 640 kbps - R5
Язык : Russian
Default : Нет
Forced : Нет

Аудио #3
Идентификатор : 4
Формат : AC-3
Формат/Информация : Audio Coding 3
Расширение режима : CM (complete main)
Параметр Endianness формата : Big
Идентификатор кодека : A_AC3
Продолжительность : 1 ч. 43 м.
Вид битрейта : Постоянный
Битрейт : 192 Кбит/сек
Каналы : 2 канала
Расположение каналов : Front: L R
Частота : 48,0 КГц
Метод сжатия : С потерями
Размер потока : 142 Мбайт (2%)
Заголовок : MVO | DD 2.0 @ 192 kbps - VGTRK
Язык : Russian
Default : Нет
Forced : Нет

Аудио #4
Идентификатор : 5
Формат : AC-3
Формат/Информация : Audio Coding 3
Расширение режима : CM (complete main)
Параметр Endianness формата : Big
Идентификатор кодека : A_AC3
Продолжительность : 1 ч. 43 м.
Вид битрейта : Постоянный
Битрейт : 192 Кбит/сек
Каналы : 2 канала
Расположение каналов : Front: L R
Частота : 48,0 КГц
Метод сжатия : С потерями
Размер потока : 142 Мбайт (2%)
Заголовок : MVO | DD 2.0 @ 192 kbps - ICTV
Язык : Ukrainian
Default : Нет
Forced : Нет

Аудио #5
Идентификатор : 6
Формат : AC-3
Формат/Информация : Audio Coding 3
Расширение режима : CM (complete main)
Параметр Endianness формата : Big
Идентификатор кодека : A_AC3
Продолжительность : 1 ч. 43 м.
Вид битрейта : Постоянный
Битрейт : 640 Кбит/сек
Каналы : 6 каналов
Расположение каналов : Front: L C R, Side: L R, LFE
Частота : 48,0 КГц
Метод сжатия : С потерями
Размер потока : 475 Мбайт (8%)
Заголовок : Original | DD 5.1 @ 640 kbps
Язык : English
Default : Нет
Forced : Нет

Текст #1
Идентификатор : 7
Формат : UTF-8
Идентификатор кодека : S_TEXT/UTF8
Идентификатор кодека/Информация : UTF-8 Plain Text
Язык : Russian
Default : Нет
Forced : Нет

Текст #2
Идентификатор : 8
Формат : UTF-8
Идентификатор кодека : S_TEXT/UTF8
Идентификатор кодека/Информация : UTF-8 Plain Text
Заголовок : Full
Язык : English
Default : Нет
Forced : Нет

Текст #3
Идентификатор : 9
Формат : UTF-8
Идентификатор кодека : S_TEXT/UTF8
Идентификатор кодека/Информация : UTF-8 Plain Text
Заголовок : SDH
Язык : English
Default : Нет
Forced : Нет

Меню
00:00:00.000 : :(01)00:00:00:000
00:08:54.659 : :(02)00:08:54:659
00:21:31.164 : :(03)00:21:31:164
00:30:27.242 : :(04)00:30:27:242
00:42:07.399 : :(05)00:42:07:399
00:52:02.702 : :(06)00:52:02:702
01:01:54.961 : :(07)01:01:54:961
01:11:11.100 : :(08)01:11:11:100
01:22:35.658 : :(09)01:22:35:658
01:33:09.292 : :(10)01:33:09:292

pb.wtf



Скачать Кодекс вора через торрент http://i73.fastpic.ru/big/2016/0406/23/7a36a07c6438e515b117030d83f7c023.png Скачать фильм Кодекс вора через торрент бесплантно в хорошем качестве Описание: Кит Рипли, опытный вор из Нью-Йорка, приглашает из Майами молодого, но уже проявившего себя «коллегу», Габриэля Мартина. Рипли ... 10 10 9
Info! Золотая раздача, скачанное не засчитывается.
Торрент: Зарегистрирован [2016-04-06 06:43] · скачан: 294 раз
Статус: √ проверено
Размер: 5.74 GB
Как cкачать? Как скачать Кодекс вора через торрент | qTorrent

28-11-2019 20:33  

Отключить всю рекламу на сайте

    Дорогой пользователь! Огромная просьба, поблагодарите релизера, оцените раздачу и оставьте свои комментарий, если Вы скачали Кодекс вора через торрент бесплатно! Внесите свою лепту в развитие PiratBit!
    Комментировать посты могут только пользователи прошедшие не сложную регистрацию
    Показать сообщения:    

    Кодекс вора через торрент
    Скачать бесплатно Кодекс вора
    Кодекс вора скачать торрент
    Кодекс вора смотреть онлайн
    Cкачать фильм Кодекс вора бесплатно
    Кодекс вора скачать торрент в хорошем качестве
    Кодекс вора смотреть онлайн бесплатно в хорошем качестве


    Вы не можете начинать темы
    Вы не можете отвечать на сообщения
    Вы не можете редактировать свои сообщения
    Вы не можете удалять свои сообщения
    Вы не можете голосовать в опросах
    Вы не можете прикреплять файлы к сообщениям
    Вы можете скачивать файлы