Ссылка на приватное зеркало нашего сайта всего за 1$. Внимание количество ограничено!!!

2 сезон

iTunes

1 сезон

1

2 сезон

2 сезон

iTunes

1 сезон

RePack

30

Ultimate

ВАЖНО

ИГРА 18+

pack

RePack

MK11
pack

Забери бонус

RePack

jed

!!Акция!!

Alien_Rage

RePack

fifa19

RePack

Assassins Creed: Odyssey

RePack

NEED FOR SPEED™ PAYBACK

4 сезон

9 сезон

Бесстыжие 9 сезон

Все сериалы

все сериалы на PB.wtf

RePack

FAR CRY 5
  

12 обезьян / 12 Monkeys / Сезон: 2 / Серии 1-13 из 13 (Дэвид Гроссман / David Grossman, Магнус Мартенс / Magnus Martens, Майкл Ваксман / Michael Waxman) [2016, США, фантастика, триллер, драма, WEB-DL 1080р] MVO [BaibaKo] pb.wtf

12 обезьян через торрент pb.wtf

Размер: 22.55 GB | Добавлен: 4 года 4 мес. назад | Торрент скачан:17 раз
Скачать  

07-04-2016 03:00 12 обезьян Скачать торрент  


12 обезьян / 12 Monkeys

«Изменить историю»


  • Год выпуска: 2016
  • Страна: США
  • Жанр: фантастика, триллер, драма, детектив, приключения
  • Продолжительность: 00:44:02 (Серия)
  • Перевод: Профессиональный многоголосый закадровый [BaibaKo]
  • Режиссер: Дэвид Гроссман / David Grossman, Магнус Мартенс / Magnus Martens, Майкл Ваксман / Michael Waxman
  • В ролях:

    Аарон Стэнфорд (James Cole), Аманда Шулл (Dr. Cassandra Railly), Кирк Асеведо (José Ramse), Барбара Зукова (Katarina Jones), Эмили Хэмпшир (Jennifer Goines), Ной Бин (Aaron Marker), Том Нунен (Pallid Man), Демор Барнс (Whitley), Эндрю Гиллис (Dr. Adler), Мюррэй Фюрроу (Dr. Lasky), Алисен Даун (Striking Woman), Билл Таймони (Senator Royce)


  • Коул - уголовник из постапокалиптического будущего. Его осудили за дерзкое поведение и неподчинение властям. В конце девяностых некий вирус уничтожил почти всю популяцию людей, а те, кому удалось выжить, укрылись под землей. В то время ученые уже изобрели технологию путешествия во времени, и Коул стал «морской свинкой», на которой эту технологию решили испытать. Он должен добыть для изучения образцы вируса из прошлого и за это получит полное прощение за все содеянное.
  • Рейтинг:



  • Качество: WEB-DL 1080р
  • Формат: :MKV
  • Видео кодек: AVC
  • Аудио кодек: AC3
  • Видео: 4884 Кбит/сек (2340 Кбит/сек), 1920*1080 (16:9), в 23,976 кадра/сек, AVC
  • Аудио №1: русский 384 Кбит/сек, 48,0 КГц, 6 каналов, AC-3 |[BaibaKo]|
  • Аудио №2: английский 384 Кбит/сек, 48,0 КГц, 6 каналов, AC-3
  • Релиз от: GEKADOL

    Код:

    Внимание! Раздача ведётся путём добавления новых серий; при каждом добавлении создаётся новый торрент. Чтобы начать докачку новой серии, пользователям необходимо сделать следующее:
    (1) остановить скачивание,
    (2) удалить старый торрент у себя из клиента (старые серии удалять не надо),
    (3) скачать новый торрент и запустить его у себя в клиенте вместо старого, при этом указать клиенту путь в старую папку куда и должно происходить скачивание новых серий.
    Ваш клиент при этом должен произвести хеширование (проверку) старой папки (если не производит сам - помогите ему сделать это), и будет докачивать только те серии которых у вас ещё нет. Старые серии при этом не удаляются, а продолжают раздаваться!
    Eсли вы уже удалили старые серии, то предотвратить повторную закачку старых серий можно, отжав галочку в соответсвующих местах при запуске нового торрента. По возможности, желательно не удалять старые серии как можно дольше чтобы релизёр не столько продолжал раздавать старые серии, а смог сконцентрироваться на новых.


    Код:

    Общее
    Уникальный идентификатор                 : 201554638842289721532415854202912449554 (0x97A202ED93F57A0392367666E8632412)
    Полное имя                               : H:\12.Monkeys.s02.1080p.WEB-DL.BaibaKo\12.Monkeys.s02e02.HD1080p.WEB-DL.Rus.Eng.BaibaKo.tv.mkv
    Формат                                   : Matroska
    Версия формата                           : Version 4 / Version 2
    Размер файла                             : 1,74 Гбайт
    Продолжительность                        : 43 м.
    Общий поток                              : 5767 Кбит/сек
    Дата кодирования                         : UTC 2016-04-28 02:23:59
    Программа кодирования                    : mkvmerge v8.9.0 ('Father Daughter') 64bit
    Библиотека кодирования                   : libebml v1.3.3 + libmatroska v1.4.4
    DURATION                                 : 00:43:12.128000000
    NUMBER_OF_FRAMES                         : 81004
    NUMBER_OF_BYTES                          : 124422144
    _STATISTICS_WRITING_APP                  : mkvmerge v8.9.0 ('Father Daughter') 64bit
    _STATISTICS_WRITING_DATE_UTC             : 2016-04-28 02:23:59
    _STATISTICS_TAGS                         : BPS DURATION NUMBER_OF_FRAMES NUMBER_OF_BYTES

    Видео
    Идентификатор                            : 1
    Формат                                   : AVC
    Формат/Информация                        : Advanced Video Codec
    Профиль формата                          : High@L4
    Параметр CABAC формата                   : Да
    Параметр ReFrames формата                : 4 кадра
    Идентификатор кодека                     : V_MPEG4/ISO/AVC
    Продолжительность                        : 43 м.
    Битрейт                                  : 4884 Кбит/сек
    Номинальный битрейт                      : 2340 Кбит/сек
    Ширина                                   : 1920 пикселей
    Высота                                   : 1080 пикселей
    Соотношение сторон                       : 16:9
    Режим частоты кадров                     : Постоянный
    Частота кадров                           : 23,976 кадра/сек
    Цветовое пространство                    : YUV
    Субдискретизация насыщенности            : 4:2:0
    Битовая глубина                          : 8 бит
    Тип развёртки                            : Прогрессивная
    Бит/(Пиксели*Кадры)                      : 0.098
    Размер потока                            : 1,47 Гбайт (85%)
    Библиотека кодирования                   : x264 core 148 r2665 a01e339
    Настройки программы                      : cabac=1 / ref=4 / deblock=1:0:0 / analyse=0x3:0x113 / me=umh / subme=10 / psy=1 / psy_rd=1.00:0.00 / mixed_ref=1 / me_range=32 / chroma_me=1 / trellis=2 / 8x8dct=1 / cqm=0 / deadzone=21,11 / fast_pskip=1 / chroma_qp_offset=-4 / threads=12 / lookahead_threads=1 / sliced_threads=0 / nr=0 / decimate=1 / interlaced=0 / bluray_compat=0 / constrained_intra=0 / bframes=5 / b_pyramid=2 / b_adapt=2 / b_bias=0 / direct=1 / weightb=1 / open_gop=0 / weightp=2 / keyint=240 / keyint_min=23 / scenecut=40 / intra_refresh=0 / rc_lookahead=40 / rc=2pass / mbtree=0 / bitrate=2340 / ratetol=1.0 / qcomp=0.60 / qpmin=0 / qpmax=69 / qpstep=4 / cplxblur=20.0 / qblur=0.5 / vbv_maxrate=62500 / vbv_bufsize=78125 / nal_hrd=none / filler=0 / ip_ratio=1.40 / pb_ratio=1.30 / aq=1:1.00
    Default                                  : Нет
    Forced                                   : Нет
    Цветовой диапазон                        : Limited
    Основные цвета                           : BT.709
    Характеристики трансфера                 : BT.709
    Коэффициенты матрицы                     : BT.709

    Аудио #1
    Идентификатор                            : 2
    Формат                                   : AC-3
    Формат/Информация                        : Audio Coding 3
    Расширение режима                        : CM (complete main)
    Параметр Endianness формата              : Big
    Идентификатор кодека                     : A_AC3
    Продолжительность                        : 43 м.
    Вид битрейта                             : Постоянный
    Битрейт                                  : 384 Кбит/сек
    Каналы                                   : 6 каналов
    Расположение каналов                     : Front: L C R, Side: L R, LFE
    Частота                                  : 48,0 КГц
    Метод сжатия                             : С потерями
    Размер потока                            : 119 Мбайт (7%)
    Язык                                     : Russian
    Default                                  : Да
    Forced                                   : Нет

    Аудио #2
    Идентификатор                            : 3
    Формат                                   : AC-3
    Формат/Информация                        : Audio Coding 3
    Расширение режима                        : CM (complete main)
    Параметр Endianness формата              : Big
    Идентификатор кодека                     : A_AC3
    Продолжительность                        : 43 м.
    Вид битрейта                             : Постоянный
    Битрейт                                  : 384 Кбит/сек
    Каналы                                   : 6 каналов
    Расположение каналов                     : Front: L C R, Side: L R, LFE
    Частота                                  : 48,0 КГц
    Метод сжатия                             : С потерями
    Размер потока                            : 119 Мбайт (7%)
    Язык                                     : English
    Default                                  : Нет
    Forced                                   : Нет




    Скриншоты:
    скриншот   скриншот   скриншот   скриншот   скриншот   скриншот   скриншот  
    скриншот  

    Раздача ведётся путём добавления новых серий. Добавлена 13 серия (20.07.2016).Просьба перекачать торрент файл.

    pb.wtf



  • Скачать 12 обезьян через торрент http://pic1.kartinco.top/images/10/yf1u5.jpg Скачать фильм 12 обезьян через торрент бесплантно в хорошем качестве qw.png Коул - уголовник из постапокалиптического будущего. Его осудили за дерзкое поведение и неподчинение властям. В конце девяностых ... 8.8 10 14
    Info! Золотая раздача, скачанное не засчитывается.
    Торрент: Зарегистрирован [2016-07-20 01:10] · скачан: 17 раз
    Статус: √ проверено
    Размер: 22.55 GB
    Как cкачать? Как скачать 12 обезьян через торрент | qTorrent

    % Раздел Тема Автор DL S | L
    Зарубежные сериалы [ 11.17 GB ] 12 обезьян / 12 Monkeys / Сезон: 2 / Серии 1-13 из 13 [2016 WEB-DLRip-AVC] MVO [BaibaKo] GEKADOL Скачать
    1 | 0


    Последний раз редактировалось: GEKADOL (2016-07-20 01:10), всего редактировалось 6 раз(а)

    28-11-2019 20:33  

    Отключить всю рекламу на сайте

    07-04-2016 13:11 12 обезьян Скачать торрент  

    Спасибо!pb.wtf



    08-04-2016 00:05 12 обезьян Скачать торрент  

    dark messian писал(а):

    Спасибо!

    pb.wtf



    28-04-2016 10:45 12 обезьян Скачать торрент  

    Заменена 1 серия!!!! pb.wtf



    31-08-2016 14:16 12 обезьян Скачать торрент  

    сериал отличныйpb.wtf



    06-01-2019 20:16 12 обезьян Скачать торрент  

    дайте скоростьpb.wtf



      Дорогой пользователь! Огромная просьба, поблагодарите релизера, оцените раздачу и оставьте свои комментарий, если Вы скачали 12 обезьян через торрент бесплатно! Внесите свою лепту в развитие PiratBit!
      Комментировать посты могут только пользователи прошедшие не сложную регистрацию
      Показать сообщения:    

      12 обезьян через торрент
      Скачать бесплатно 12 обезьян
      12 обезьян скачать торрент
      12 обезьян смотреть онлайн
      Cкачать фильм 12 обезьян бесплатно
      12 обезьян скачать торрент в хорошем качестве
      12 обезьян смотреть онлайн бесплатно в хорошем качестве


      Вы не можете начинать темы
      Вы не можете отвечать на сообщения
      Вы не можете редактировать свои сообщения
      Вы не можете удалять свои сообщения
      Вы не можете голосовать в опросах
      Вы не можете прикреплять файлы к сообщениям
      Вы можете скачивать файлы