новый адрес пиратбит piratbit
Мега распродажа FORZA HORIZON 4 ULTIMATE+ВСЕ DLC+ОНЛАЙН всего за 499р. 349 руб. (супер цена). Внимание количество ограничено!!!

iTunes

1+1

iTunes

мы

iTunes

1

iTunes

Чернобыль

iTunes

Ральф против интернета

Лицензия

ПШазам

Лицензия

Игра престолов

Лицензия

30
pack

ВАЖНО

!!Акция!!

Alien_RageХит недели

RePack

Resident Evil 21

ИГРА 18+

pack

RePack

Metro:Exodus

!!Акция!!

Alien_Rage

RePack

fifa19

RePack

Assassins Creed: Odyssey

RePack

NEED FOR SPEED™ PAYBACK

3 сезон

9 сезон

Бесстыжие 9 сезон

Все сериалы

все сериалы на PB.wtf

RePack

FAR CRY 5
Ребята, катастрофически не хватает 1900р. для оплаты серверов за Октябрь (всвязи с блокировками трафик упал в 3 раза), 1-2р., выручайте.
  

Круг / Bleed (Tripp Rhame) [2016, ужасы, триллер, WEB-DLRip] DVO [den904 & DeadSno] pb.wtf

Круг через торрент pb.wtf

Размер: 1.36 GB | Добавлен: 3 года 7 мес. назад | Торрент скачан:172 раза
Скачать  

07-04-2016 16:48 Круг Скачать торрент  

Круг / Bleed

Информация о фильме
Название: Круг
Оригинальное название: Bleed
Год выхода: 2016
Жанр: ужасы, триллер
Режиссер: Tripp Rhame
Выпущено: США / Spitfire Studios
Продолжительность: 01:20:07
Озвучивание: Любительское (двухголосое) [den904 & DeadSno]
Субтитры: нет
В ролях: Челси Крисп, Райли Смит, Майкл Стегер, Линдон Смит, Бриттани Исибаси, Элиму Нельсон, Дэвид Йоу, Эрик Абрахам, Denny Ainsworth, Бен Эмик

Описание: Жизнь казалась идеальной — новый дом, новый брак, ребенок скоро родится. Но когда Сара и Мэтт пригласили своих друзей к себе на праздник, ситуация оказалась смертельной, к ним в дом входит призрак, сгоревший на охоте...


Примечание: Релиз без рекламы.

Файл
Качество: WEB-DLRip
Формат: AVI (XviD)
Видео: MPEG-4 Visual at 2035 Кбит/сек, 720 x 304 (2.368), at 23.976 fps
Аудио1: AC-3, at 192 Кбит/сек, 2 канала, 48,0 КГц
Аудио2: AC-3, at 192 Кбит/сек, 2 канала, 48,0 КГц

Код:

Общее
Полное имя                               : D:\Фильмы\Bleed.2016.L2.WEB-DLRip.avi
Формат                                   : AVI
Формат/Информация                        : Audio Video Interleave
Размер файла                             : 1,36 Гбайт
Продолжительность                        : 1 ч. 20 м.
Общий поток                              : 2434 Кбит/сек
Программа кодирования                    : VirtualDubMod 1.5.10.3 | www.virtualdub-fr.org || (build 2550/release)
Библиотека кодирования                   : VirtualDubMod build 2550/release

Видео
Идентификатор                            : 0
Формат                                   : MPEG-4 Visual
Профиль формата                          : Advanced Simple@L5
Параметр BVOP формата                    : 1
Параметр QPel формата                    : Нет
Параметр GMC формата                     : Без точки перехода
Параметр матрицы формата                 : Выборочная
Идентификатор кодека                     : XVID
Идентификатор кодека/Подсказка           : XviD
Продолжительность                        : 1 ч. 20 м.
Битрейт                                  : 2035 Кбит/сек
Ширина                                   : 720 пикселей
Высота                                   : 304 пикселя
Соотношение сторон                       : 2,35:1
Частота кадров                           : 23,976 кадра/сек
Цветовое пространство                    : YUV
Субдискретизация насыщенности            : 4:2:0
Битовая глубина                          : 8 бит
Тип развёртки                            : Прогрессивная
Метод сжатия                             : С потерями
Бит/(Пиксели*Кадры)                      : 0.388
Размер потока                            : 1,14 Гбайт (84%)
Библиотека кодирования                   : XviD 73

Аудио #1
Идентификатор                            : 1
Формат                                   : AC-3
Формат/Информация                        : Audio Coding 3
Расширение режима                        : CM (complete main)
Параметр Endianness формата              : Big
Идентификатор кодека                     : 2000
Продолжительность                        : 1 ч. 20 м.
Вид битрейта                             : Постоянный
Битрейт                                  : 192 Кбит/сек
Каналы                                   : 2 канала
Расположение каналов                     : Front: L R
Частота                                  : 48,0 КГц
Метод сжатия                             : С потерями
Размер потока                            : 110 Мбайт (8%)
Выравнивание                             : Разделение по промежуткам
Продолжительность промежутка             : 42  мс. (1,00 видеокадр)
Время предзагрузки промежутка            : 500  мс.

Аудио #2
Идентификатор                            : 2
Формат                                   : AC-3
Формат/Информация                        : Audio Coding 3
Расширение режима                        : CM (complete main)
Параметр Endianness формата              : Big
Идентификатор кодека                     : 2000
Продолжительность                        : 1 ч. 20 м.
Вид битрейта                             : Постоянный
Битрейт                                  : 192 Кбит/сек
Каналы                                   : 2 канала
Расположение каналов                     : Front: L R
Частота                                  : 48,0 КГц
Метод сжатия                             : С потерями
Размер потока                            : 110 Мбайт (8%)
Выравнивание                             : Разделение по промежуткам
Продолжительность промежутка             : 42  мс. (1,00 видеокадр)
Время предзагрузки промежутка            : 500  мс.

pb.wtf



Скачать Круг через торрент http://pic.kartinco.top/images/11/gr7b1.jpg Скачать фильм Круг через торрент бесплантно в хорошем качестве Описание: Жизнь казалась идеальной — новый дом, новый брак, ребенок скоро родится. Но когда Сара и Мэтт пригласили своих друзей к себе на ... 10 10 5
Торрент: Зарегистрирован [2016-04-07 16:48] · скачан: 172 раз
Статус: T временная
Размер: 1.36 GB
Как cкачать? Как скачать Круг через торрент | qTorrent

% Раздел Тема Автор DL S | L
T Фильмы (WEB-DL 720p, 1080p) [ 3.5 GB ] Сокровища Округа Буллиттов / Bullitt County [2018 WEB-DL 1080p] MVO [HDRezka Studio] bober100 Скачать
1 | 0
T Фильмы (мультфильмы) cо спонсором показа (Новинки AVI/MKV) [ 1.37 GB ] Сокровища Округа Буллиттов / Bullitt County [2018 WEB-DLRip] MVO ["Синема УС"] bober100 Скачать
1 | 0
T Фильмы 2016 (Звук TS, Cam, VO, DVO) [ 753 MB ] Круг / Bleed [2016 WEB-DLRip by Leonardo'D] DVO [den904 & DeadSno] Leonardo'D Скачать
1 | 0


Последний раз редактировалось: Leonardo'D (2016-04-07 17:26), всего редактировалось 1 раз


>> Регистрируемся здесь <<






Отзывы и комментарии о схеме читаем и пишем здесь: ---> Отзывы и комментарии о схеме

Новые благодарочки в телеграм довольных пользователей:
скриншот   скриншот   скриншот   скриншот   скриншот

07-04-2016 17:00 Круг Скачать торрент  

07-04-2016 17:24 Круг Скачать торрент  

Kakuha,
Спасибо а то забыл, что то)pb.wtf



07-04-2016 17:49 Круг Скачать торрент  

расскажите - как фильм ???? стоит качать ??????pb.wtf



07-04-2016 18:04 Круг Скачать торрент  

Moscow77,
Пока делал рип просмотрел в перемотке)), без звука а потом так моментами по мне фильм на 3/5.pb.wtf



    Дорогой пользователь! Огромная просьба, поблагодарите релизера, оцените раздачу и оставьте свои комментарий, если Вы скачали Круг через торрент бесплатно! Внесите свою лепту в развитие PiratBit!
    Комментировать посты могут только пользователи прошедшие не сложную регистрацию
    Показать сообщения:    

    Круг через торрент
    Скачать бесплатно Круг
    Круг скачать торрент
    Круг смотреть онлайн
    Cкачать фильм Круг бесплатно
    Круг скачать торрент в хорошем качестве
    Круг смотреть онлайн бесплатно в хорошем качестве


    Вы не можете начинать темы
    Вы не можете отвечать на сообщения
    Вы не можете редактировать свои сообщения
    Вы не можете удалять свои сообщения
    Вы не можете голосовать в опросах
    Вы не можете прикреплять файлы к сообщениям
    Вы можете скачивать файлы