новый адрес
Ссылка на приватное зеркало всего за 1$. Внимание количество ограничено!!!

iTunes

1+1

iTunes

мы

iTunes

1

iTunes

Чернобыль

iTunes

Ральф против интернета

Лицензия

ПШазам

Лицензия

Оно 2

Лицензия

30
pack

Вам бонус

ВАЖНО

!!Акция!!

Alien_RageХит недели

RePack

Resident Evil 21

ИГРА 18+

pack

RePack

jed

!!Акция!!

Alien_Rage

RePack

fifa19

RePack

Assassins Creed: Odyssey

RePack

NEED FOR SPEED™ PAYBACK

3 сезон

9 сезон

Бесстыжие 9 сезон

Все сериалы

все сериалы на PB.wtf

RePack

FAR CRY 5
Ребята, катастрофически не хватает 1900р. для оплаты серверов за Октябрь (всвязи с блокировками трафик упал в 3 раза), 1-2р., выручайте.
  

Круг / Bleed (Tripp Rhame) [2016, ужасы, триллер, WEB-DLRip by Leonardo'D] DVO [den904 & DeadSno] pb.wtf

Круг через торрент pb.wtf

Размер: 753 MB | Добавлен: 3 года 7 мес. назад | Торрент скачан:61 раз
Скачать  

07-04-2016 17:22 Круг Скачать торрент  

Круг / Bleed

Информация о фильме
Название: Круг
Оригинальное название: Bleed
Год выхода: 2016
Жанр: ужасы, триллер
Режиссер: Tripp Rhame
Выпущено: США / Spitfire Studios
Продолжительность: 01:20:07
Озвучивание: Любительское (двухголосое) [den904 & DeadSno]
Субтитры: нет

В ролях: Челси Крисп, Райли Смит, Майкл Стегер, Линдон Смит, Бриттани Исибаси, Элиму Нельсон, Дэвид Йоу, Эрик Абрахам, Denny Ainsworth, Бен Эмик

Описание: Жизнь казалась идеальной — новый дом, новый брак, ребенок скоро родится. Но когда Сара и Мэтт пригласили своих друзей к себе на праздник, ситуация оказалась смертельной, к ним в дом входит призрак, сгоревший на охоте...

Автор рипа:
Примечание: Релиз без рекламы.

Файл
Качество: WEB-DLRip
Формат: AVI (XviD)
Видео: MPEG-4 Visual, at 1111 Кбит/сек, 688 x 288 (2.379), at 25.000 fps
Аудио: AC-3, at 192 Кбит/сек, 2 канала, 48,0 КГц

Код:

Общее
Полное имя                               : D:\Фильмы\Мои Рипы\Bleed.2016.L2.WEB-DL.by Leonardo'D.avi
Формат                                   : AVI
Формат/Информация                        : Audio Video Interleave
Размер файла                             : 753 Мбайт
Продолжительность                        : 1 ч. 20 м.
Общий поток                              : 1314 Кбит/сек
Программа кодирования                    : Lavf56.25.101

Видео
Идентификатор                            : 0
Формат                                   : MPEG-4 Visual
Профиль формата                          : Advanced Simple@L5
Параметр BVOP формата                    : Нет
Параметр QPel формата                    : Нет
Параметр GMC формата                     : Без точки перехода
Параметр матрицы формата                 : Default (MPEG)
Идентификатор кодека                     : XVID
Идентификатор кодека/Подсказка           : XviD
Продолжительность                        : 1 ч. 20 м.
Битрейт                                  : 1111 Кбит/сек
Ширина                                   : 688 пикселей
Высота                                   : 288 пикселей
Соотношение сторон                       : 2,40:1
Частота кадров                           : 25,000 кадров/сек
Цветовое пространство                    : YUV
Субдискретизация насыщенности            : 4:2:0
Битовая глубина                          : 8 бит
Тип развёртки                            : Прогрессивная
Метод сжатия                             : С потерями
Бит/(Пиксели*Кадры)                      : 0.224
Размер потока                            : 636 Мбайт (85%)
Библиотека кодирования                   : XviD 67

Аудио
Идентификатор                            : 1
Формат                                   : AC-3
Формат/Информация                        : Audio Coding 3
Расширение режима                        : CM (complete main)
Параметр Endianness формата              : Big
Идентификатор кодека                     : 2000
Продолжительность                        : 1 ч. 20 м.
Вид битрейта                             : Постоянный
Битрейт                                  : 192 Кбит/сек
Каналы                                   : 2 канала
Расположение каналов                     : Front: L R
Частота                                  : 48,0 КГц
Битовая глубина                          : 16 бит
Метод сжатия                             : С потерями
Размер потока                            : 110 Мбайт (15%)
Выравнивание                             : Соединение по промежуткам
Продолжительность промежутка             : 32  мс. (0,80 видеокадр)

pb.wtf



Скачать Круг через торрент http://pic.kartinco.top/images/11/gr7b1.jpg Скачать фильм Круг через торрент бесплантно в хорошем качестве Описание: Жизнь казалась идеальной — новый дом, новый брак, ребенок скоро родится. Но когда Сара и Мэтт пригласили своих друзей к себе на ... 10 10 3
Торрент: Зарегистрирован [2016-04-07 17:22] · скачан: 61 раз
Статус: T временная
Размер: 753 MB
Как cкачать? Как скачать Круг через торрент | qTorrent

% Раздел Тема Автор DL S | L
T Фильмы (WEB-DL 720p, 1080p) [ 3.5 GB ] Сокровища Округа Буллиттов / Bullitt County [2018 WEB-DL 1080p] MVO [HDRezka Studio] bober100 Скачать
1 | 0
T Фильмы (мультфильмы) cо спонсором показа (Новинки AVI/MKV) [ 1.37 GB ] Сокровища Округа Буллиттов / Bullitt County [2018 WEB-DLRip] MVO ["Синема УС"] bober100 Скачать
1 | 0
T Фильмы 2016 (Звук TS, Cam, VO, DVO) [ 1.36 GB ] Круг / Bleed [2016 WEB-DLRip] DVO [den904 & DeadSno] Leonardo'D Скачать
1 | 0
    Дорогой пользователь! Огромная просьба, поблагодарите релизера, оцените раздачу и оставьте свои комментарий, если Вы скачали Круг через торрент бесплатно! Внесите свою лепту в развитие PiratBit!
    Комментировать посты могут только пользователи прошедшие не сложную регистрацию
    Показать сообщения:    

    Круг через торрент
    Скачать бесплатно Круг
    Круг скачать торрент
    Круг смотреть онлайн
    Cкачать фильм Круг бесплатно
    Круг скачать торрент в хорошем качестве
    Круг смотреть онлайн бесплатно в хорошем качестве


    Вы не можете начинать темы
    Вы не можете отвечать на сообщения
    Вы не можете редактировать свои сообщения
    Вы не можете удалять свои сообщения
    Вы не можете голосовать в опросах
    Вы не можете прикреплять файлы к сообщениям
    Вы можете скачивать файлы