Ссылка на приватное зеркало нашего сайта всего за 1$. Внимание количество ограничено!!!

2 сезон

iTunes

1 сезон

1

2 сезон

2 сезон

iTunes

1 сезон

RePack

30

Ultimate

ВАЖНО

ИГРА 18+

pack

RePack

MK11
pack

Забери бонус

RePack

jed

!!Акция!!

Alien_Rage

RePack

fifa19

RePack

Assassins Creed: Odyssey

RePack

NEED FOR SPEED™ PAYBACK

4 сезон

9 сезон

Бесстыжие 9 сезон

Все сериалы

все сериалы на PB.wtf

RePack

FAR CRY 5
  

Сингенор / Syngenor (Джордж Эланджан) [1990, ужасы, фантастика, BDRip 720p by msltel] DVO pb.wtf

Сингенор через торрент pb.wtf

Размер: 3.97 GB | Добавлен: 4 года 7 мес. назад | Торрент скачан:29 раз
Скачать  

08-04-2016 08:34 Сингенор Скачать торрент  

Название: Сингенор
Оригинальное название: Syngenor
Год выпуска: 1990
Страна: США
Жанр: ужасы, фантастика
Продолжительность: 01:37:51
Перевод: профессиональный двухголосый

Режиссёр: Джордж Эланджан

В ролях: Старр Андреефф, Митчелл Лоранс, Дэвид Гэйл, Чарльз Люсия, Рива Спайэр, Джефф Дусетте, Билл Грэттон, Льюис Аркетт, Джон Коркс, Мелани Шетнер

Описание: Учёные международной корпорации «Нортон Кибердайл» произвели на свет СИНтезированный ГЕНетический ОРганизм - СИНГЕНОР. Этот биоробот предназначен для боевых действий. Но он оказывается раньше времени на свободе и уничтожает нескольких служащих компании, включая своего создателя Итана Валентайна. Его племянница Сьюзен находит своего дядю мёртвым. При этом она сама чудом спасается от монстра. Полиция не верит в существование чудовища, и только репортёр Ник Кэри соглашается ей помочь, надеясь при этом получить хороший материал для репортажа. Но даже фотографии, сделанные Ником, не убеждают полицию. А тем временем в лаборатории дяди появляется на свет новое чудовище...



Качество: BDRip 720p Сравнение с исходником
Формат: MKV
Видео: MPEG-4 AVC, 5164 Кбит/с, 1280x720, 24 кадра/с
Аудио 1: русский, AC3, 192 kbps, 2 ch, 48 kHz [профессиональный двухголосый]
Аудио 2: английский, AC3, 448 kbps, 6 ch, 48 kHz [оригинал]
Общее
Уникальный идентификатор : 173243632205886876817172987069323660173 (0x825582886950F09B8CAB790EB169CB8D)
Полное имя : D:\Video\Сингенор.1990.BDRip.720p.mkv
Формат : Matroska
Версия формата : Version 4 / Version 2
Размер файла : 3,97 Гбайт
Продолжительность : 1 ч. 37 м.
Общий поток : 5806 Кбит/сек
Дата кодирования : UTC 2016-04-08 07:23:22
Программа кодирования : mkvmerge v8.2.0 ('World of Adventure') 64bit
Библиотека кодирования : libebml v1.3.1 + libmatroska v1.4.2

Видео
Идентификатор : 1
Формат : AVC
Формат/Информация : Advanced Video Codec
Профиль формата : High@L4.1
Параметр CABAC формата : Да
Параметр ReFrames формата : 9 кадров
Идентификатор кодека : V_MPEG4/ISO/AVC
Продолжительность : 1 ч. 37 м.
Битрейт : 5164 Кбит/сек
Ширина : 1280 пикселей
Высота : 720 пикселей
Соотношение сторон : 16:9
Режим частоты кадров : Постоянный
Частота кадров : 24,000 кадра/сек
Цветовое пространство : YUV
Субдискретизация насыщенности : 4:2:0
Битовая глубина : 8 бит
Тип развёртки : Прогрессивная
Бит/(Пиксели*Кадры) : 0.233
Размер потока : 3,53 Гбайт (89%)
Библиотека кодирования : x264 core 146 r2538 121396c
Настройки программы : cabac=1 / ref=9 / deblock=1:-3:-3 / analyse=0x3:0x113 / me=umh / subme=10 / psy=1 / psy_rd=1.00:0.15 / mixed_ref=1 / me_range=32 / chroma_me=1 / trellis=2 / 8x8dct=1 / cqm=0 / deadzone=21,11 / fast_pskip=1 / chroma_qp_offset=-3 / threads=6 / lookahead_threads=1 / sliced_threads=0 / nr=0 / decimate=1 / interlaced=0 / bluray_compat=0 / constrained_intra=0 / bframes=6 / b_pyramid=2 / b_adapt=2 / b_bias=0 / direct=1 / weightb=1 / open_gop=0 / weightp=2 / keyint=230 / keyint_min=23 / scenecut=40 / intra_refresh=0 / rc_lookahead=40 / rc=crf / mbtree=0 / crf=19.0 / qcomp=0.60 / qpmin=0 / qpmax=69 / qpstep=4 / vbv_maxrate=40000 / vbv_bufsize=50000 / crf_max=0.0 / nal_hrd=none / filler=0 / ip_ratio=1.40 / pb_ratio=1.30 / aq=1:1.00
Язык : English
Default : Да
Forced : Нет

Аудио #1
Идентификатор : 2
Формат : AC-3
Формат/Информация : Audio Coding 3
Расширение режима : CM (complete main)
Параметр Endianness формата : Big
Идентификатор кодека : A_AC3
Продолжительность : 1 ч. 37 м.
Вид битрейта : Постоянный
Битрейт : 192 Кбит/сек
Каналы : 2 канала
Расположение каналов : Front: L R
Частота : 48,0 КГц
Частота кадров : 31,250 кадров/сек (1536 spf)
Метод сжатия : С потерями
Размер потока : 134 Мбайт (3%)
Заголовок : DVO
Язык : Russian
Default : Да
Forced : Нет

Аудио #2
Идентификатор : 3
Формат : AC-3
Формат/Информация : Audio Coding 3
Расширение режима : CM (complete main)
Параметр Endianness формата : Big
Идентификатор кодека : A_AC3
Продолжительность : 1 ч. 37 м.
Вид битрейта : Постоянный
Битрейт : 448 Кбит/сек
Каналы : 6 каналов
Расположение каналов : Front: L C R, Side: L R, LFE
Частота : 48,0 КГц
Частота кадров : 31,250 кадров/сек (1536 spf)
Метод сжатия : С потерями
Размер потока : 314 Мбайт (8%)
Заголовок : Original
Язык : English
Default : Нет
Forced : Нет
pb.wtf



Скачать Сингенор через торрент http://s014.radikal.ru/i329/1604/f0/c4b407daac5f.jpg Скачать фильм Сингенор через торрент бесплантно в хорошем качестве Описание: Учёные международной корпорации «Нортон Кибердайл» произвели на свет СИНтезированный ГЕНетический ОРганизм - СИНГЕНОР. Этот ... 9.3 10 3
Info! Золотая раздача, скачанное не засчитывается.
Торрент: Зарегистрирован [2016-04-08 08:34] · скачан: 29 раз
Статус: √ проверено
Размер: 3.97 GB
Как cкачать? Как скачать Сингенор через торрент | qTorrent

% Раздел Тема Автор DL S | L
Фильмы [HD 720p, 1080p] (Хороший звук DUB, MVO) [ 11.04 GB ] Сингенор / Syngenor [1990 BDRip 1080p by msltel] DVO msltel Скачать
1 | 0

28-11-2019 20:33  

Отключить всю рекламу на сайте

    Дорогой пользователь! Огромная просьба, поблагодарите релизера, оцените раздачу и оставьте свои комментарий, если Вы скачали Сингенор через торрент бесплатно! Внесите свою лепту в развитие PiratBit!
    Комментировать посты могут только пользователи прошедшие не сложную регистрацию
    Показать сообщения:    

    Сингенор через торрент
    Скачать бесплатно Сингенор
    Сингенор скачать торрент
    Сингенор смотреть онлайн
    Cкачать фильм Сингенор бесплатно
    Сингенор скачать торрент в хорошем качестве
    Сингенор смотреть онлайн бесплатно в хорошем качестве


    Вы не можете начинать темы
    Вы не можете отвечать на сообщения
    Вы не можете редактировать свои сообщения
    Вы не можете удалять свои сообщения
    Вы не можете голосовать в опросах
    Вы не можете прикреплять файлы к сообщениям
    Вы можете скачивать файлы