Ссылка на приватное зеркало нашего сайта всего за 1$. Внимание количество ограничено!!!

2 сезон

iTunes

1 сезон

1

2 сезон

2 сезон

iTunes

1 сезон

RePack

30

Новинка

ВАЖНО

ИГРА 18+

pack

RePack

MK11
pack

Забери бонус

RePack

jed

!!Акция!!

Alien_Rage

RePack

fifa19

RePack

Assassins Creed: Odyssey

RePack

NEED FOR SPEED™ PAYBACK

4 сезон

9 сезон

Бесстыжие 9 сезон

Все сериалы

все сериалы на PB.wtf

RePack

FAR CRY 5
  

Последний обряд / Demonic (Уилл Кэнон) [2015 г., Ужасы, триллер, HDRip] DUB [Лицензия] pb.wtf

Последний обряд через торрент pb.wtf

Размер: 1.37 GB | Добавлен: 4 года 7 мес. назад | Торрент скачан:536 раз
Скачать  

08-04-2016 10:33 Последний обряд Скачать торрент  

Последний обряд / Demonic
Год выпуска » 2015
Страна » США, Великобритания
Жанр » Ужасы, триллер
Продолжительность » 01:23:31
Перевод » Профессиональный (полное дублирование)
Субтитры » Отсутствуют

В ролях
» Мария Белло, Фрэнк Грилло, Коуди Хорн, Дастин Миллиган, Меган Парк, Скотт Мехловиц, Аарон Ю, Алекс Гуд, Эштон Ли, Терренс Розмор


Режиссёр
» Уилл Кэнон
Описание:
» Жуткое убийство происходит в заброшенном доме. Полиция обнаруживает три трупа и одного выжившего свидетеля. Он рассказывает, что его друзья погибли во время спиритического сеанса.

• Качество » HDRip
• Формат » avi
• Видео кодек » XviD
• Аудио кодек » AC3
• Видео » 720x304, 23.976 fps, 1886 Кбит/с
• Аудио » Русский (AC-3/ 6 ch / 448 kbps / 48,0 КГц / 16 bit )




Бюджет: $3 000 000
Сборы в Мире: $3 387 774
Сборы в России: $143 699
Дата мировой премьеры: 12 февраля 2015
Дата российской премьеры: 21 января 2016, «Экспонента»
Общее
Полное имя : E:\Новая папка (2)\Demonic.2015.D.HDRip.avi
Формат : AVI
Формат/Информация : Audio Video Interleave
Размер файла : 1,37 Гбайт
Продолжительность : 1 ч. 23 м.
Общий поток : 2343 Кбит/сек
Название фильма : rustorrents.info
Программа кодирования : VirtualDubMod 1.5.10.3 | www.virtualdub-fr.org || (build 2550/release)

Видео
Идентификатор : 0
Формат : MPEG-4 Visual
Профиль формата : Advanced Simple@L5
Параметр BVOP формата : 2
Параметр QPel формата : Нет
Параметр GMC формата : Без точки перехода
Параметр матрицы формата : Выборочная
Идентификатор кодека : XVID
Идентификатор кодека/Подсказка : XviD
Продолжительность : 1 ч. 23 м.
Битрейт : 1886 Кбит/сек
Ширина : 720 пикселей
Высота : 304 пикселя
Соотношение сторон : 2,35:1
Частота кадров : 23,976 кадра/сек
Цветовое пространство : YUV
Субдискретизация насыщенности : 4:2:0
Битовая глубина : 8 бит
Тип развёртки : Прогрессивная
Метод сжатия : С потерями
Бит/(Пиксели*Кадры) : 0.359
Размер потока : 1,10 Гбайт (80%)
Библиотека кодирования : XviD 1.2.1 (UTC 2008-12-04)

Аудио
Идентификатор : 1
Формат : AC-3
Формат/Информация : Audio Coding 3
Расширение режима : CM (complete main)
Параметр Endianness формата : Big
Идентификатор кодека : 2000
Продолжительность : 1 ч. 23 м.
Вид битрейта : Постоянный
Битрейт : 448 Кбит/сек
Каналы : 6 каналов
Расположение каналов : Front: L C R, Side: L R, LFE
Частота : 48,0 КГц
Битовая глубина : 16 бит
Метод сжатия : С потерями
Размер потока : 268 Мбайт (19%)
Выравнивание : Разделение по промежуткам
Продолжительность промежутка : 42 мс. (1,00 видеокадр)
Время предзагрузки промежутка : 500 мс.
[/code]
скриншот   скриншот   скриншот   скриншот  
pb.wtf



Скачать Последний обряд через торрент http://pic1.kartinco.top/images/10/qjilv.jpg Скачать фильм Последний обряд через торрент бесплантно в хорошем качестве Описание:» Жуткое убийство происходит в заброшенном доме. Полиция обнаруживает три трупа и одного выжившего свидетеля. Он рассказывает, что ... 8 10 16
Info! Золотая раздача, скачанное не засчитывается.
Торрент: Зарегистрирован [2016-04-08 10:33] · скачан: 536 раз
Статус: √ проверено
Размер: 1.37 GB
Как cкачать? Как скачать Последний обряд через торрент | qTorrent

% Раздел Тема Автор DL S | L
Фильмы 2015 [DVDrip, WEB-DLRip, HDrip] [ 1.46 GB ] Последний обряд / Demonic [2015 BDRip] - [] Twi7ter Скачать
2 | 0
Фильмы 2015 [DVDrip, WEB-DLRip, HDrip] [ 1.46 GB ] Последний обряд / Demonic [2015 BDRip-AVC от sokol_ok] DUB sokol_ok Скачать
2 | 0
Фильмы [HD 720p, 1080p] (Хороший звук DUB, MVO) [ 4.65 GB ] Последний обряд / Demonic [2015 BDRip 720p] DUB [] $-DRON-$ Скачать
1 | 0
Фильмы [HD 720p, 1080p] (Хороший звук DUB, MVO) [ 8.39 GB ] Последний обряд / Demonic [2015 BDRip 1080p] DUB Ворон Скачать
1 | 0
Фильмы 2015 [DVDrip, WEB-DLRip, HDrip] [ 744 MB ] Последний обряд / Demonic [2015 HDRip] DUB [] Leonardo'D Скачать
1 | 0

28-11-2019 20:33  

Отключить всю рекламу на сайте

27-04-2016 03:30 Последний обряд Скачать торрент  

Среднее кино второй раз не стал бы смотреть.pb.wtf



    Дорогой пользователь! Огромная просьба, поблагодарите релизера, оцените раздачу и оставьте свои комментарий, если Вы скачали Последний обряд через торрент бесплатно! Внесите свою лепту в развитие PiratBit!
    Комментировать посты могут только пользователи прошедшие не сложную регистрацию
    Показать сообщения:    

    Последний обряд через торрент
    Скачать бесплатно Последний обряд
    Последний обряд скачать торрент
    Последний обряд смотреть онлайн
    Cкачать фильм Последний обряд бесплатно
    Последний обряд скачать торрент в хорошем качестве
    Последний обряд смотреть онлайн бесплатно в хорошем качестве


    Вы не можете начинать темы
    Вы не можете отвечать на сообщения
    Вы не можете редактировать свои сообщения
    Вы не можете удалять свои сообщения
    Вы не можете голосовать в опросах
    Вы не можете прикреплять файлы к сообщениям
    Вы можете скачивать файлы