Ссылка на приватное зеркало нашего сайта всего за 1$. Внимание количество ограничено!!!

2 сезон

iTunes

1 сезон

1

2 сезон

2 сезон

iTunes

1 сезон

RePack

30

Ultimate

ВАЖНО

ИГРА 18+

pack

RePack

MK11
pack

Забери бонус

RePack

jed

!!Акция!!

Alien_Rage

RePack

fifa19

RePack

Assassins Creed: Odyssey

RePack

NEED FOR SPEED™ PAYBACK

4 сезон

9 сезон

Бесстыжие 9 сезон

Все сериалы

все сериалы на PB.wtf

RePack

FAR CRY 5
  

Чужестранка / Outlander / Сезон: 2 / Серии 1-13 из 13 (Метин Хусейн / Metin Hüseyin, Анна Ферстер / Anna Foerster, Брайан Келли / Brian Kelly) [2016, США, Великобритания, фантастика, драма, мелодрама, WEBRip-AVC] MVO [BaibaKo] pb.wtf

Чужестранка через торрент pb.wtf

Размер: 13.62 GB | Добавлен: 3 года 1 мес. назад | Торрент скачан:9 раз
Скачать  

09-04-2016 02:33 Чужестранка Скачать торрент  


Чужестранка / Outlander

«Если прошлое станет будущим»


  • Год выпуска: 2016
  • Страна: США, Великобритания
  • Жанр: фантастика, драма, мелодрама
  • Продолжительность: 00:57:54 (Серия)
  • Перевод: Профессиональный многоголосый закадровый [BaibaKo]
  • Режиссер: Метин Хусейн / Metin Hüseyin, Анна Ферстер / Anna Foerster, Брайан Келли / Brian Kelly
  • В ролях:

    Катрина Балф (Claire Randall), Сэм Хьюэн (Jamie Fraser), Тобайас Мензис (Frank Randall), Данкан Лакруа (Murtagh Fraser), Грант О’Рурк (Rupert MacKenzie), Стивен Уолтерс (Angus Mhor), Грэм МакТавиш (Dougal MacKenzie), Finn Den Hertog (Willie), Билл Патерсон (Ned Gowan), Нелл Хадсон (Laoghaire MacKenzie), Гари Льюис (Colum MacKenzie), Лотта Вербек (Geillis Duncan)


  • Сериал рассказывает историю Клэр Рэндалл, военной медсестры из 40-х годов XX века, которая во время прогулки у легендарных шотландских каменных кругов загадочно перемещается во времени в 1743-й год. Попадая в XVIII век, Клэр оказывается в неизвестном мире, где ее жизни угрожает опасность. Девушка должна найти возможность выжить и вернуться обратно в будущее, где остался ее муж Фрэнк Рэндалл. Чтобы спастись в неизвестном и незнакомом героине прошлом, она вынуждена выйти замуж за Джейми Фрейзера, галантного шотландского воина со сложной судьбой и обезоруживающим чувством юмора.
  • Рейтинг:



  • Качество: WEBRip-AVC
  • Формат: :MPEG-4
  • Видео кодек: AVC
  • Аудио кодек: AC3
  • Видео: 1024x576 (16:9), 2200 kbps, 23,976 fps, 0,156 bpp
  • Аудио №1: русский / 2.0 / 48 kHz / 384 kbps / 16 bit |[BaibaKo]|
  • Аудио №2: английский / 2.0 / 48 kHz / 384 kbps / 16 bit
  • Релиз от: GEKADOL

    Внимание! Раздача ведётся путём добавления новых серий; при каждом добавлении создаётся новый торрент. Чтобы начать докачку новой серии, пользователям необходимо сделать следующее:
    (1) остановить скачивание,
    (2) удалить старый торрент у себя из клиента (старые серии удалять не надо),
    (3) скачать новый торрент и запустить его у себя в клиенте вместо старого, при этом указать клиенту путь в старую папку куда и должно происходить скачивание новых серий.
    Ваш клиент при этом должен произвести хеширование (проверку) старой папки (если не производит сам - помогите ему сделать это), и будет докачивать только те серии которых у вас ещё нет. Старые серии при этом не удаляются, а продолжают раздаваться!
    Eсли вы уже удалили старые серии, то предотвратить повторную закачку старых серий можно, отжав галочку в соответствующих местах при запуске нового торрента. По возможности, желательно не удалять старые серии как можно дольше чтобы релизёр не столько продолжал раздавать старые серии, а смог сконцентрироваться на новых.

    General
    Complete name : H:\Чужестранка (Сезон 2)\Outlander.s02e01.WEBRip-AVC.Rus.Eng.BaibaKo.tv.mp4
    Format : MPEG-4
    Format profile : Base Media
    Codec ID : isom
    File size : 1.17 GiB
    Duration : 57mn 54s
    Overall bit rate : 2 888 Kbps
    Writing application : XviD4PSP 7.0.248
    iTunMOVI : <?xml version="1.0" encoding="UTF-8"?> / <!DOCTYPE plist PUBLIC "-//Apple//DTD PLIST 1.0//EN" "http://www.apple.com/DTDs/PropertyList-1.0.dtd"> / <plist version="1.0"> / <dict> / <key>encoding_info</key> / <array> / <dict> / <key>name</key> / <string>MATROSKA</string> / </dict> / <dict> / <key>name</key> / <string><![CDATA[WEBM > MP4 / H264 > X264 CBR 2200kbps HQ / AC3 > AC3 CBR 384kbps Custom / AC3 > AC3 CBR 384kbps Custom]]></string> / </dict> / </array> / </dict> / </plist>

    Video
    ID : 1
    Format : AVC
    Format/Info : Advanced Video Codec
    Format profile : High@L3.2
    Format settings, CABAC : Yes
    Format settings, ReFrames : 4 frames
    Codec ID : avc1
    Codec ID/Info : Advanced Video Coding
    Duration : 57mn 54s
    Bit rate : 2 200 Kbps
    Width : 1 024 pixels
    Height : 576 pixels
    Display aspect ratio : 16:9
    Frame rate mode : Variable
    Frame rate : 23.976 fps
    Minimum frame rate : 15.984 fps
    Maximum frame rate : 47.952 fps
    Color space : YUV
    Chroma subsampling : 4:2:0
    Bit depth : 8 bits
    Scan type : Progressive
    Bits/(Pixel*Frame) : 0.156
    Stream size : 876 MiB (73%)
    Writing library : x264 core 148 r2665M a01e339
    Encoding settings : cabac=1 / ref=3 / deblock=1:-1:-1 / analyse=0x3:0x133 / me=hex / subme=7 / psy=1 / psy_rd=1.00:0.20 / mixed_ref=1 / me_range=16 / chroma_me=1 / trellis=1 / 8x8dct=1 / cqm=0 / deadzone=21,11 / fast_pskip=1 / chroma_qp_offset=-3 / threads=5 / lookahead_threads=1 / sliced_threads=0 / nr=0 / decimate=1 / interlaced=0 / bluray_compat=0 / constrained_intra=0 / bframes=3 / b_pyramid=2 / b_adapt=2 / b_bias=0 / direct=3 / weightb=1 / open_gop=0 / weightp=2 / keyint=230 / keyint_min=23 / scenecut=40 / intra_refresh=0 / rc_lookahead=40 / rc=cbr / mbtree=1 / bitrate=2200 / ratetol=1.0 / qcomp=0.60 / qpmin=0 / qpmax=69 / qpstep=4 / vbv_maxrate=2200 / vbv_bufsize=2200 / nal_hrd=none / filler=0 / ip_ratio=1.40 / aq=1:1.00

    Audio #1
    ID : 2
    Format : AC-3
    Format/Info : Audio Coding 3
    Mode extension : CM (complete main)
    Codec ID : ac-3
    Duration : 57mn 54s
    Bit rate mode : Constant
    Bit rate : 384 Kbps
    Channel(s) : 2 channels
    Channel positions : Front: L R
    Sampling rate : 48.0 KHz
    Bit depth : 16 bits
    Compression mode : Lossy
    Stream size : 159 MiB (13%)
    Language : Russian

    Audio #2
    ID : 3
    Format : AC-3
    Format/Info : Audio Coding 3
    Mode extension : CM (complete main)
    Codec ID : ac-3
    Duration : 57mn 54s
    Bit rate mode : Constant
    Bit rate : 384 Kbps
    Channel(s) : 2 channels
    Channel positions : Front: L R
    Sampling rate : 48.0 KHz
    Bit depth : 16 bits
    Compression mode : Lossy
    Stream size : 159 MiB (13%)
    Language : English



    Внимание! В сериале присутствуют сцены сексуального характера!
    Скриншоты:
    скриншот   скриншот   скриншот   скриншот   скриншот   скриншот   скриншот  
    скриншот  

    Раздача ведётся путём добавления новых серий. Добавлены 6-13 серии (27.09.2017).Просьба перекачать торрент файл.

    pb.wtf



  • Скачать Чужестранка через торрент http://pic1.kartinco.top/images/10/y4d9c.jpg Скачать фильм Чужестранка через торрент бесплантно в хорошем качестве qw.png Сериал рассказывает историю Клэр Рэндалл, военной медсестры из 40-х годов XX века, которая во время прогулки у легендарных ... 9.3 10 19
    Info! Золотая раздача, скачанное не засчитывается.
    Торрент: Зарегистрирован [2017-09-27 05:33] · скачан: 9 раз
    Статус: √ проверено
    Размер: 13.62 GB
    Как cкачать? Как скачать Чужестранка через торрент | qTorrent



    Последний раз редактировалось: GEKADOL (2017-09-27 06:44), всего редактировалось 13 раз(а)

    28-11-2019 20:33  

    Отключить всю рекламу на сайте

    11-04-2016 11:27 Чужестранка Скачать торрент  

    Первый сезон был просто потрясающим. Очень красивый сериал с логичной, взрослой историей. Очень аутентичен, дух времен чувствуется буквально кожей. В общем шикарно было.
    А что сейчас покажут посмотрим, но куртуазная Европа менее интересна чем Шотландия с их суровыми горцами.pb.wtf



    18-04-2016 09:56 Чужестранка Скачать торрент  

    Сериал с начало понравился,но когда появились педики....ФУ!pb.wtf



    18-04-2016 15:17 Чужестранка Скачать торрент  

    первый сезон нормальный был а второй сезон дамочек показывают с дилдо и король Франции публично при народе тужится,ну че за бред,не буду смотретьpb.wtf



    22-04-2016 10:25 Чужестранка Скачать торрент  

    Подожду пока всё переведут. Хочу не растягивать удовольствие,а проглотить за раз))) Если будет такая же замануха,как и в 1 сезоне,то респект и уважуха авторам сериала!!!pb.wtf



    12-08-2016 09:07 Чужестранка Скачать торрент  

    Сезон уже полностью вышел, обновите торрент то. Хотя Бабайко забили :(pb.wtf



    05-12-2017 21:00 Чужестранка Скачать торрент  

    Где же раздача !?Скорости ноль !? Будет раздача в итоге !!!!!???pb.wtf



      Дорогой пользователь! Огромная просьба, поблагодарите релизера, оцените раздачу и оставьте свои комментарий, если Вы скачали Чужестранка через торрент бесплатно! Внесите свою лепту в развитие PiratBit!
      Комментировать посты могут только пользователи прошедшие не сложную регистрацию
      Показать сообщения:    

      Чужестранка через торрент
      Скачать бесплатно Чужестранка
      Чужестранка скачать торрент
      Чужестранка смотреть онлайн
      Cкачать фильм Чужестранка бесплатно
      Чужестранка скачать торрент в хорошем качестве
      Чужестранка смотреть онлайн бесплатно в хорошем качестве


      Вы не можете начинать темы
      Вы не можете отвечать на сообщения
      Вы не можете редактировать свои сообщения
      Вы не можете удалять свои сообщения
      Вы не можете голосовать в опросах
      Вы не можете прикреплять файлы к сообщениям
      Вы можете скачивать файлы