Достать ножи: Стеклянная луковица

MVO

Добыча

Дубляж

Уэнсдэй

1 сезон

Тор

Дубляж

13 клиническая

1 сезон

Жестокая ночь

MVO

Одни из нас

1 сезон

Deluxe

pack

Рекомендуем

30

Пиратка

ВАЖНО

ВАЖНО

Ghostwire

Пиратка

jed

RePack

nioh2

RePack

RDR2

RePack

NEED FOR SPEED™ PAYBACK

RePack

скачать торрент

Кинопоиск HD

Острые козырьки 6 сезон

6 сезон

FAR CRY 6

RePack

скачать торрент

Лицензия

скачать торрент

MVO

1

1 сезон

скачать торрент

1 сезон

скачать торрент

Лицензия

  

Тот самый Мюнхгаузен (Марк Захаров) [1979, трагикомедия, DVDRip]

Тот самый Мюнхгаузен через торрент pb.wtf

Размер: 2.05 GB | Добавлен: 6 лет 9 мес. назад | Торрент скачан:134 раза
Смотреть онлайн | Скачать | Поддержите нас   

09-04-2016 08:50 Тот самый Мюнхгаузен Скачать торрент  

Тот самый Мюнхгаузен

  • Год выхода: 1979
  • Жанр: трагикомедия

  • Страна: СССР
  • Продолжительность: 02:14:07
  • Перевод: Не требуется
  • Примечание: Полная реставрация изображения и звука - "КП"
  • Режиссер: Марк Захаров
  • В ролях:

    Олег Янковский (барон Мюнхгаузен), Инна Чурикова (Якобина Мюнхгаузен), Елена Коренева (Марта), Игорь Кваша (бургомистр), Александр Абдулов (Рамкопф), Леонид Ярмольник (Феофил Мюнхгаузен), Юрий Катин-Ярцев (Томас), Владимир Долинский (пастор), Леонид Броневой (герцог), Семен Фарада (главнокомандующий), Всеволод Ларионов (судья), Арсен Амаслюрянц (музыкант)


  • Комическая фантазия о жизни, любви и смерти знаменитого барона Мюнхгаузена, жившего в XVIII веке и ставшего героем многих веселых книг и преданий, опирается на персонажей и эпизоды знаменитого романа Р. Распе, но по сути является самостоятельным произведением.
    «Мыслящий человек просто обязан время от времени поднимать себя за волосы» - похоже, это и удается авторам картины. Барон хочет жениться на любимой им Марте, но церковь отказывается обвенчать их, так как имеется живая жена, «усмирявшая его 20 лет». Уставшая Марта хочет, чтобы барон стал таким, как все, но барон этого не хочет, да и не может.
    Герцог разрешит брак только в том случае, если барон письменно подтвердит, что все его истории лживы, а он сам - обыкновенный человек.

  • Качество: DVDRip
  • Формат: AVI
  • Видео кодек: XviD
  • Аудио кодек: AC3
  • Видео: XviD, 704x528 (4:3), 1648 kbps, 25 fps, 0,177 bpp
  • Аудио: AC3 / 5.1 / 48 kHz / 448 kbps / 16 bit

    Код:

    General
    Complete name                            : H:\Tot samyj Mjunhgauzen.avi
    Format                                   : AVI
    Format/Info                              : Audio Video Interleave
    File size                                : 2.05 GiB
    Duration                                 : 2h 14mn
    Overall bit rate                         : 2 192 Kbps
    Writing application                      : VirtualDubMod 1.5.10.2 (build 2540/release)
    Writing library                          : VirtualDubMod build 2540/release

    Video
    ID                                       : 0
    Format                                   : MPEG-4 Visual
    Format profile                           : Advanced [email protected]
    Format settings, BVOP                    : 2
    Format settings, QPel                    : No
    Format settings, GMC                     : No warppoints
    Format settings, Matrix                  : Default (H.263)
    Codec ID                                 : XVID
    Codec ID/Hint                            : XviD
    Duration                                 : 2h 14mn
    Bit rate                                 : 1 648 Kbps
    Width                                    : 704 pixels
    Height                                   : 528 pixels
    Display aspect ratio                     : 4:3
    Frame rate                               : 25.000 fps
    Color space                              : YUV
    Chroma subsampling                       : 4:2:0
    Bit depth                                : 8 bits
    Scan type                                : Progressive
    Compression mode                         : Lossy
    Bits/(Pixel*Frame)                       : 0.177
    Stream size                              : 1.54 GiB (75%)
    Writing library                          : XviD 1.2.1 (UTC 2008-12-04)

    Audio
    ID                                       : 1
    Format                                   : AC-3
    Format/Info                              : Audio Coding 3
    Mode extension                           : CM (complete main)
    Codec ID                                 : 2000
    Duration                                 : 2h 14mn
    Bit rate mode                            : Constant
    Bit rate                                 : 448 Kbps
    Channel(s)                               : 6 channels
    Channel positions                        : Front: L C R, Side: L R, LFE
    Sampling rate                            : 48.0 KHz
    Bit depth                                : 16 bits
    Compression mode                         : Lossy
    Stream size                              : 430 MiB (20%)
    Alignment                                : Split accross interleaves

    Скриншоты:


    © Оформление by -Lexx-



  • Скачать Тот самый Мюнхгаузен через торрент https://pic1.kartinco.top/images/61/stazu.jpg Скачать, смотреть онлайн Тот самый Мюнхгаузен бесплантно в хорошем качестве qw.png Комическая фантазия о жизни, любви и смерти знаменитого барона Мюнхгаузена, жившего в XVIII веке и ставшего героем многих веселых ... 10 10 3
    Info! Золотая раздача, скачанное не засчитывается.
    Торрент: Зарегистрирован [2016-04-09 08:50] · скачан: 134 раз
    Статус: √ проверено
    Размер: 2.05 GB
    Как cкачать? Как скачать Тот самый Мюнхгаузен через торрент | UTorrent

    % Раздел Тема Автор DL S | L
    Фильмы (HD 720p, 1080p) (48-60 fps) [ 4.92 GB ] Тот самый Мюнхгаузен | | HDTVRip 720p / 60 FPS, slaventi-69 Скачать
    2 | 0
    Кино СССР [ 2.09 GB ] Тот самый Мюнхгаузен | | DVDRip-AVC -Lexx- Скачать
    1 | 0

    28-11-2019 20:33  


    Отключить вcю реклaмy на сайте, в т.ч. и в плеере онлайн просмотра!

      Дорогой пользователь! Огромная просьба, поблагодарите релизера, оцените раздачу и оставьте свои комментарий, если Вы скачали Тот самый Мюнхгаузен через торрент бесплатно!!
      Комментировать посты могут только пользователи прошедшие не сложную регистрацию
      Показать сообщения:    


      Тот самый Мюнхгаузен через торрент
      Скачать бесплатно Тот самый Мюнхгаузен
      Тот самый Мюнхгаузен скачать торрент
      Тот самый Мюнхгаузен смотреть онлайн
      Cкачать фильм Тот самый Мюнхгаузен бесплатно
      Тот самый Мюнхгаузен скачать торрент в хорошем качестве
      Тот самый Мюнхгаузен смотреть онлайн бесплатно в хорошем качестве
      Вы не можете начинать темы
      Вы не можете отвечать на сообщения
      Вы не можете редактировать свои сообщения
      Вы не можете удалять свои сообщения
      Вы не можете голосовать в опросах
      Вы не можете прикреплять файлы к сообщениям
      Вы можете скачивать файлы
      Тот самый Мюнхгаузен [1979, трагикомедия, DVDRip] смотреть онлайн, скачать торрент picoco.icu