новый адрес
Мега распродажа FORZA HORIZON 4 ULTIMATE+ВСЕ DLC+ОНЛАЙН всего за 499р. 349 руб. (супер цена). Внимание количество ограничено!!!

iTunes

1+1

iTunes

мы

iTunes

1

iTunes

Чернобыль

iTunes

Ральф против интернета

Лицензия

ПШазам

Лицензия

Оно 2

Лицензия

30
pack

ВАЖНО

!!Акция!!

Alien_RageХит недели

RePack

Resident Evil 21

ИГРА 18+

pack

RePack

Metro:Exodus

!!Акция!!

Alien_Rage

RePack

fifa19

RePack

Assassins Creed: Odyssey

RePack

NEED FOR SPEED™ PAYBACK

3 сезон

9 сезон

Бесстыжие 9 сезон

Все сериалы

все сериалы на PB.wtf

RePack

FAR CRY 5
Ребята, катастрофически не хватает 1900р. для оплаты серверов за Октябрь (всвязи с блокировками трафик упал в 3 раза), 1-2р., выручайте.
  

Тот самый Мюнхгаузен (Марк Захаров) [1979, трагикомедия, DVDRip] pb.wtf

Тот самый Мюнхгаузен через торрент pb.wtf

Размер: 2.05 GB | Добавлен: 3 года 7 мес. назад | Торрент скачан:101 раз
Скачать  

09-04-2016 08:50 Тот самый Мюнхгаузен Скачать торрент  

Тот самый Мюнхгаузен

  • Год выхода: 1979
  • Жанр: трагикомедия

  • Страна: СССР
  • Продолжительность: 02:14:07
  • Перевод: Не требуется
  • Примечание: Полная реставрация изображения и звука - "КП"
  • Режиссер: Марк Захаров
  • В ролях:

    Олег Янковский (барон Мюнхгаузен), Инна Чурикова (Якобина Мюнхгаузен), Елена Коренева (Марта), Игорь Кваша (бургомистр), Александр Абдулов (Рамкопф), Леонид Ярмольник (Феофил Мюнхгаузен), Юрий Катин-Ярцев (Томас), Владимир Долинский (пастор), Леонид Броневой (герцог), Семен Фарада (главнокомандующий), Всеволод Ларионов (судья), Арсен Амаслюрянц (музыкант)


  • Комическая фантазия о жизни, любви и смерти знаменитого барона Мюнхгаузена, жившего в XVIII веке и ставшего героем многих веселых книг и преданий, опирается на персонажей и эпизоды знаменитого романа Р. Распе, но по сути является самостоятельным произведением.
    «Мыслящий человек просто обязан время от времени поднимать себя за волосы» - похоже, это и удается авторам картины. Барон хочет жениться на любимой им Марте, но церковь отказывается обвенчать их, так как имеется живая жена, «усмирявшая его 20 лет». Уставшая Марта хочет, чтобы барон стал таким, как все, но барон этого не хочет, да и не может.
    Герцог разрешит брак только в том случае, если барон письменно подтвердит, что все его истории лживы, а он сам - обыкновенный человек.

  • Качество: DVDRip
  • Формат: AVI
  • Видео кодек: XviD
  • Аудио кодек: AC3
  • Видео: XviD, 704x528 (4:3), 1648 kbps, 25 fps, 0,177 bpp
  • Аудио: AC3 / 5.1 / 48 kHz / 448 kbps / 16 bit

    Код:

    General
    Complete name                            : H:\Tot samyj Mjunhgauzen.avi
    Format                                   : AVI
    Format/Info                              : Audio Video Interleave
    File size                                : 2.05 GiB
    Duration                                 : 2h 14mn
    Overall bit rate                         : 2 192 Kbps
    Writing application                      : VirtualDubMod 1.5.10.2 (build 2540/release)
    Writing library                          : VirtualDubMod build 2540/release

    Video
    ID                                       : 0
    Format                                   : MPEG-4 Visual
    Format profile                           : Advanced Simple@L5
    Format settings, BVOP                    : 2
    Format settings, QPel                    : No
    Format settings, GMC                     : No warppoints
    Format settings, Matrix                  : Default (H.263)
    Codec ID                                 : XVID
    Codec ID/Hint                            : XviD
    Duration                                 : 2h 14mn
    Bit rate                                 : 1 648 Kbps
    Width                                    : 704 pixels
    Height                                   : 528 pixels
    Display aspect ratio                     : 4:3
    Frame rate                               : 25.000 fps
    Color space                              : YUV
    Chroma subsampling                       : 4:2:0
    Bit depth                                : 8 bits
    Scan type                                : Progressive
    Compression mode                         : Lossy
    Bits/(Pixel*Frame)                       : 0.177
    Stream size                              : 1.54 GiB (75%)
    Writing library                          : XviD 1.2.1 (UTC 2008-12-04)

    Audio
    ID                                       : 1
    Format                                   : AC-3
    Format/Info                              : Audio Coding 3
    Mode extension                           : CM (complete main)
    Codec ID                                 : 2000
    Duration                                 : 2h 14mn
    Bit rate mode                            : Constant
    Bit rate                                 : 448 Kbps
    Channel(s)                               : 6 channels
    Channel positions                        : Front: L C R, Side: L R, LFE
    Sampling rate                            : 48.0 KHz
    Bit depth                                : 16 bits
    Compression mode                         : Lossy
    Stream size                              : 430 MiB (20%)
    Alignment                                : Split accross interleaves

    Скриншоты:


    © Оформление by -Lexx- pb.wtf



  • Скачать Тот самый Мюнхгаузен через торрент http://pic.kartinco.top/images/6/stazu.jpg Скачать фильм Тот самый Мюнхгаузен через торрент бесплантно в хорошем качестве qw.png Комическая фантазия о жизни, любви и смерти знаменитого барона Мюнхгаузена, жившего в XVIII веке и ставшего героем многих веселых ... 10 10 3
    Info! Золотая раздача, скачанное не засчитывается.
    Торрент: Зарегистрирован [2016-04-09 08:50] · скачан: 101 раз
    Статус: √ проверено
    Размер: 2.05 GB
    Как cкачать? Как скачать Тот самый Мюнхгаузен через торрент | qTorrent

    % Раздел Тема Автор DL S | L
    Кино СССР [ 2.09 GB ] Тот самый Мюнхгаузен [1979 траги DVDRip-AVC] -Lexx- Скачать
    1 | 1


    >> Регистрируемся здесь <<






    Отзывы и комментарии о схеме читаем и пишем здесь: ---> Отзывы и комментарии о схеме

    Новые благодарочки в телеграм довольных пользователей:
    скриншот   скриншот   скриншот   скриншот   скриншот
      Дорогой пользователь! Огромная просьба, поблагодарите релизера, оцените раздачу и оставьте свои комментарий, если Вы скачали Тот самый Мюнхгаузен через торрент бесплатно! Внесите свою лепту в развитие PiratBit!
      Комментировать посты могут только пользователи прошедшие не сложную регистрацию
      Показать сообщения:    

      Тот самый Мюнхгаузен через торрент
      Скачать бесплатно Тот самый Мюнхгаузен
      Тот самый Мюнхгаузен скачать торрент
      Тот самый Мюнхгаузен смотреть онлайн
      Cкачать фильм Тот самый Мюнхгаузен бесплатно
      Тот самый Мюнхгаузен скачать торрент в хорошем качестве
      Тот самый Мюнхгаузен смотреть онлайн бесплатно в хорошем качестве


      Вы не можете начинать темы
      Вы не можете отвечать на сообщения
      Вы не можете редактировать свои сообщения
      Вы не можете удалять свои сообщения
      Вы не можете голосовать в опросах
      Вы не можете прикреплять файлы к сообщениям
      Вы можете скачивать файлы