Архив 81

1 сезон

Добыча

Дубляж

Тед Лассо

3 сезон

Тор

1 сезон

13 клиническая

3 сезон

Жестокая ночь

Дубляж

Одни из нас

1s 9e

Premium

Premium

Deluxe

Deluxe

pack

Рекомендуем

30

Repack

ВАЖНО

ВАЖНО

Ghostwire

Пиратка

jed

RePack

nioh2

RePack

RDR2

RePack

NEED FOR SPEED™ PAYBACK

RePack

скачать торрент

Кинопоиск HD

Острые козырьки 6 сезон

6 сезон

FAR CRY 6

RePack

скачать торрент

Лицензия

скачать торрент

MVO

1

1 сезон

скачать торрент

1 сезон

скачать торрент

Лицензия

  

Выживший / The Revenant (Алехандро Гонсалес Иньярриту) [2015, триллер, драма, приключения, вестерн, BDRip-AVC / Дубляж iTunes]

Выживший через торрент pb.wtf

Размер: 4.06 GB | Добавлен: 6 лет 11 мес. назад | Торрент скачан:189 раз
Смотреть онлайн | Скачать | Поддержите нас   

09-04-2016 23:13 Выживший Скачать торрент  

«До последней капли крови»
Год выпуска » 2015
Страна » США
Жанр » Триллер, драма, приключения, вестерн
Продолжительность » 02:36:21
Перевод » Дублированное [iTunes]
Субтитры » Russian (Forced, Full), English (Forced, Full)

В ролях
» Леонардо ДиКаприо, Том Харди, Донал Глисон, Уилл Поултер, Пол Андерсон, Лукас Хаас, Брэд Картер, Кристоффер Йонер, Брендан Флетчер, Grace Dove Syme


Режиссёр
» Алехандро Гонсалес Иньярриту

» Охотник Хью Гласс серьезно ранен на неизведанных просторах американского Дикого Запада. Товарищ Хью по отряду покорителей новых земель Джон Фицжеральд предательски оставляет его умирать в одиночестве. Теперь у Гласса осталось только одно оружие — его сила воли. Он готов бросить вызов первобытной природе, суровой зиме и враждебным племенам индейцев, только чтобы выжить и отомстить Фицжеральду.

• Качество » BDRip-AVC
• Формат » MKV
• Видео кодек » AVC
• Аудио кодек » AC3
• Видео » MPEG-4 AVC, 2882 Кбит/с, 1032х432 at 23.976 fps
• Аудио » Русский (AC-3 / 6 ch / 384 kbps / 48,0 КГц / 16 bit )
• Аудио » Английский (AC-3 / 6 ch / 448 kbps / 48,0 КГц / 16 bit)



Бюджет: $135 000 000
Сборы в США: $1 441 640

Дата мировой премьеры: 25 декабря 2015
Дата российской премьеры: 7 января 2016, «Двадцатый Век Фокс СНГ»
raw [info]: 1032x432p 1:1 @ 24000/1001 fps (cfr)
x264 [info]: using SAR=1/1
x264 [info]: using cpu capabilities: MMX2 SSE2Fast SSSE3 SSE4.2 AVX
x264 [info]: profile High, level 4.1
x264 [info]: frame I:1188 Avg QP:13.96 size: 89877
x264 [info]: frame P:57070 Avg QP:17.13 size: 30587
x264 [info]: frame B:166670 Avg QP:18.56 size: 9149
==============================================================================================================
Общее
Уникальный идентификатор : 214625900094282191076099932834653093742 (0xA17771DD50E54354B64966CC8BF53F6E)
Полное имя : D:Выживший_2015-BDRip-AVC.mkv
Формат : Matroska
Версия формата : Version 2
Размер файла : 4,06 Гбайт
Продолжительность : 2 ч. 36 м.
Общий поток : 3701 Кбит/сек
Дата кодирования : UTC 2016-04-09 10:57:22
Программа кодирования : mkvmerge v5.8.0 ('No Sleep / Pillow') built on Sep 2 2012 15:37:04
Библиотека кодирования : libebml v1.2.3 + libmatroska v1.3.0

Видео
Идентификатор : 1
Формат : AVC
Формат/Информация : Advanced Video Codec
Профиль формата : [email protected]
Параметр CABAC формата : Да
Параметр ReFrames формата : 12 кадров
Идентификатор кодека : V_MPEG4/ISO/AVC
Продолжительность : 2 ч. 36 м.
Битрейт : 2882 Кбит/сек
Ширина : 1032 пикселя
Высота : 432 пикселя
Соотношение сторон : 2,40:1
Режим частоты кадров : Постоянный
Частота кадров : 23,976 кадра/сек
Цветовое пространство : YUV
Субдискретизация насыщенности : 4:2:0
Битовая глубина : 8 бит
Тип развёртки : Прогрессивная
Бит/(Пиксели*Кадры) : 0.270
Размер потока : 3,06 Гбайт (76%)
Заголовок : by filbi1976
Библиотека кодирования : x264 core 148 r2638 7599210
Настройки программы : cabac=1 / ref=12 / deblock=1:-3:-3 / analyse=0x3:0x113 / me=umh / subme=10 / psy=1 / psy_rd=1.05:0.11 / mixed_ref=1 / me_range=32 / chroma_me=1 / trellis=2 / 8x8dct=1 / cqm=0 / deadzone=21,11 / fast_pskip=0 / chroma_qp_offset=-3 / threads=12 / lookahead_threads=3 / sliced_threads=0 / nr=0 / decimate=0 / interlaced=0 / bluray_compat=0 / constrained_intra=0 / bframes=10 / b_pyramid=2 / b_adapt=2 / b_bias=0 / direct=3 / weightb=1 / open_gop=0 / weightp=2 / keyint=240 / keyint_min=23 / scenecut=40 / intra_refresh=0 / rc=2pass / mbtree=0 / bitrate=2882 / ratetol=1.0 / qcomp=0.63 / qpmin=0 / qpmax=39 / qpstep=4 / cplxblur=20.0 / qblur=0.5 / ip_ratio=1.25 / pb_ratio=1.30 / aq=3:1.00
Язык : English
Default : Да
Forced : Нет
Цветовой диапазон : Limited
Основные цвета : BT.709
Характеристики трансфера : BT.709
Коэффициенты матрицы : BT.709

Аудио #1
Идентификатор : 2
Формат : AC-3
Формат/Информация : Audio Coding 3
Расширение режима : CM (complete main)
Параметр Endianness формата : Big
Идентификатор кодека : A_AC3
Продолжительность : 2 ч. 36 м.
Вид битрейта : Постоянный
Битрейт : 384 Кбит/сек
Каналы : 6 каналов
Расположение каналов : Front: L C R, Side: L R, LFE
Частота : 48,0 КГц
Метод сжатия : С потерями
Размер потока : 431 Мбайт (10%)
Язык : Russian
Default : Да
Forced : Нет

Аудио #2
Идентификатор : 3
Формат : AC-3
Формат/Информация : Audio Coding 3
Расширение режима : CM (complete main)
Параметр Endianness формата : Big
Идентификатор кодека : A_AC3
Продолжительность : 2 ч. 36 м.
Вид битрейта : Постоянный
Битрейт : 448 Кбит/сек
Каналы : 6 каналов
Расположение каналов : Front: L C R, Side: L R, LFE
Частота : 48,0 КГц
Метод сжатия : С потерями
Размер потока : 503 Мбайт (12%)
Язык : English
Default : Нет
Forced : Нет

Текст #1
Идентификатор : 4
Формат : UTF-8
Идентификатор кодека : S_TEXT/UTF8
Идентификатор кодека/Информация : UTF-8 Plain Text
Заголовок : Forced
Язык : Russian
Default : Да
Forced : Нет

Текст #2
Идентификатор : 5
Формат : UTF-8
Идентификатор кодека : S_TEXT/UTF8
Идентификатор кодека/Информация : UTF-8 Plain Text
Заголовок : Full
Язык : Russian
Default : Нет
Forced : Нет

Текст #3
Идентификатор : 6
Формат : UTF-8
Идентификатор кодека : S_TEXT/UTF8
Идентификатор кодека/Информация : UTF-8 Plain Text
Заголовок : Forced
Язык : English
Default : Нет
Forced : Нет

Текст #4
Идентификатор : 7
Формат : UTF-8
Идентификатор кодека : S_TEXT/UTF8
Идентификатор кодека/Информация : UTF-8 Plain Text
Заголовок : Full
Язык : English
Default : Нет
Forced : Нет

Меню
00:00:00.000 : en:Chapter 1
00:05:04.846 : en:Chapter 2
00:07:58.310 : en:Chapter 3
00:13:18.964 : en:Chapter 4
00:21:10.685 : en:Chapter 5
00:28:21.657 : en:Chapter 6
00:37:07.765 : en:Chapter 7
00:44:00.345 : en:Chapter 8
00:48:14.974 : en:Chapter 9
00:51:42.264 : en:Chapter 10
00:56:51.032 : en:Chapter 11
00:59:50.753 : en:Chapter 12
01:03:31.766 : en:Chapter 13
01:11:52.432 : en:Chapter 14
01:16:36.131 : en:Chapter 15
01:21:22.377 : en:Chapter 16
01:28:31.139 : en:Chapter 17
01:37:29.969 : en:Chapter 18
01:48:44.643 : en:Chapter 19
01:53:08.782 : en:Chapter 20
01:59:05.930 : en:Chapter 21
02:02:56.702 : en:Chapter 22
02:15:45.261 : en:Chapter 23
02:22:51.020 : en:Chapter 24
02:36:21.120 : en:Chapter 25
[/code]
скриншот   скриншот   скриншот   скриншот   скриншот   скриншот   скриншот  



Скачать Выживший через торрент https://pic1.kartinco.top/images/10/v67q9.jpg Скачать, смотреть онлайн Выживший бесплантно в хорошем качестве В ролях » Леонардо ДиКаприо, Том Харди, Донал Глисон, Уилл Поултер, Пол Андерсон, Лукас Хаас, Брэд Картер, Кристоффер Йонер, Брендан ... 9.8 10 8
Info! Золотая раздача, скачанное не засчитывается.
Торрент: Зарегистрирован [2016-04-09 23:13] · скачан: 189 раз
Статус: √ проверено
Размер: 4.06 GB
Как cкачать? Как скачать Выживший через торрент | UTorrent

% Раздел Тема Автор DL S | L
Фильмы [HD 720p, 1080p] (Хороший звук DUB, MVO) [ 7.84 GB ] Выживший / The Revenant | Лицензия | 1080p bober100 Скачать
2 | 0
Ultra HD (UHD: 2K, 4K, 8K) [ 35.96 GB ] Выживший / The Revenant | DUB + 2xAVO | 2160p sheker187 Скачать
1 | 0
# Фильмы (Blu-ray, BD-Remux, HDDVD) [ 51.17 GB ] Выживший / The Revenant | DUB | 1080p sheker187 Скачать
1 | 0
Фильмы [HD 720p, 1080p] (Хороший звук DUB, MVO) [ 8.7 GB ] Выживший / The Revenant | Лицензия | 720p от potroks potroks Скачать
1 | 0
Ultra HD (UHD: 2K, 4K, 8K) [ 52.45 GB ] Выживший / The Revenant | Лицензия | 2160p sheker187 Скачать
1 | 0
Фильмы [HD 720p, 1080p] (Хороший звук DUB, MVO) [ 7.9 GB ] Выживший / The Revenant | DUB | 720p от _denis_100 / NNNB _denis_100 Скачать
1 | 0
Фильмы 2015 [DVDrip, WEB-DLRip, HDrip] [ 4.96 GB ] Выживший / The Revenant | AVO | BDRip-AVC, Dub, 2 x AVO morfyi Скачать
1 | 0

28-11-2019 20:33  


Отключить вcю реклaмy на сайте, в т.ч. и в плеере онлайн просмотра!

10-04-2016 03:51 Выживший Скачать торрент  

Классны фильм посмотрел не пожалел)



    Дорогой пользователь! Огромная просьба, поблагодарите релизера, оцените раздачу и оставьте свои комментарий, если Вы скачали Выживший через торрент бесплатно!!
    Комментировать посты могут только пользователи прошедшие не сложную регистрацию
    Показать сообщения:    


    Выживший через торрент
    Скачать бесплатно Выживший
    Выживший скачать торрент
    Выживший смотреть онлайн
    Cкачать фильм Выживший бесплатно
    Выживший скачать торрент в хорошем качестве
    Выживший смотреть онлайн бесплатно в хорошем качестве
    Вы не можете начинать темы
    Вы не можете отвечать на сообщения
    Вы не можете редактировать свои сообщения
    Вы не можете удалять свои сообщения
    Вы не можете голосовать в опросах
    Вы не можете прикреплять файлы к сообщениям
    Вы можете скачивать файлы
    Выживший / The Revenant [2015, триллер, драма, приключения, вестерн, BDRip-AVC / Дубляж iTunes] смотреть онлайн, скачать торрент picoco.icu