новый адрес
Ссылка на приватное зеркало всего за 1$. Внимание количество ограничено!!!

iTunes

1+1

iTunes

мы

iTunes

1

iTunes

Чернобыль

iTunes

Ральф против интернета

Лицензия

ПШазам

Лицензия

Оно 2

Лицензия

30
pack

Вам бонус

ВАЖНО

!!Акция!!

Alien_RageХит недели

RePack

Resident Evil 21

ИГРА 18+

pack

RePack

jed

!!Акция!!

Alien_Rage

RePack

fifa19

RePack

Assassins Creed: Odyssey

RePack

NEED FOR SPEED™ PAYBACK

3 сезон

9 сезон

Бесстыжие 9 сезон

Все сериалы

все сериалы на PB.wtf

RePack

FAR CRY 5
Ребята, катастрофически не хватает 1900р. для оплаты серверов за Октябрь (всвязи с блокировками трафик упал в 3 раза), 1-2р., выручайте.
  

Весёлые звёзды (Вера Строева) [1954, СССР, комедия, музыка, SATRip от AVP Studio] pb.wtf

Весёлые звёзды через торрент pb.wtf

Размер: 1.46 GB | Добавлен: 3 года 7 мес. назад | Торрент скачан:30 раз
Скачать  

10-04-2016 09:24 Весёлые звёзды Скачать торрент  

Весёлые звёзды
Страна: СССР
Производство: Мосфильм

Жанр: комедия, музыка
Год выпуска: 19 июля 1954
Продолжительность: 01:36:38

Перевод: Не требуется
Cубтитры: нет
Оригинальная аудиодорожка: русский

Режиссер: Вера Строева

В ролях:
Ефим Березин, Юрий Тимошенко, Лев Миров, Марк Новицкий, Юдифь Глизер, Рина Зелёная, Мария Миронова, Александр Менакер, Павел Тарасов, Леонид Утёсов, Георгий Сорокин, Клавдия Шульженко, Таисия Савва, Николай Смирнов-Сокольский, Ашура Насырова...
Полный список актёров

Описание:
В Москву на Всесоюзный конкурс молодых артистов эстрады приезжают два друга: Тарапунька и Штепсель. Начинающие конферансье завоевывают право вести концерт. Дебют героев венчается признанием публики и жюри. В фильме-концерте принимают участие популярные артисты советской эстрады и кино.

Источник: DVB
Качество видео: SATRip
Формат видео: AVI

Видео: 688x512 (4:3), 25 fps, XviD ~ 1958 kbps avg, 0.222 bit/pixel
Аудио: 48 kHz, Dolby Digital AC3 2.0, 192 kbps

Раздача от:
Общее
Полное имя : Veselye.zvezdy.1954.SATRip_[New-team]_by_AVP_Studio.avi
Формат : AVI
Формат/Информация : Audio Video Interleave
Размер файла : 1,46 Гбайт
Продолжительность : 1 ч. 36 м.
Общий поток : 2160 Кбит/сек
Программа кодирования : VirtualDubMod 1.5.10.3 | www.virtualdub-fr.org || (build 2550/release)
Библиотека кодирования : VirtualDubMod build 2550/release

Видео
Идентификатор : 0
Формат : MPEG-4 Visual
Профиль формата : Advanced Simple@L5
Параметр BVOP формата : 1
Параметр QPel формата : Нет
Параметр GMC формата : Без точки перехода
Параметр матрицы формата : Выборочная
Идентификатор кодека : XVID
Идентификатор кодека/Подсказка : XviD
Продолжительность : 1 ч. 36 м.
Битрейт : 1958 Кбит/сек
Ширина : 688 пикселей
Высота : 512 пикселей
Соотношение сторон : 4:3
Частота кадров : 25,000 кадров/сек
Цветовое пространство : YUV
Субдискретизация насыщенности : 4:2:0
Битовая глубина : 8 бит
Тип развёртки : Прогрессивная
Метод сжатия : С потерями
Бит/(Пиксели*Кадры) : 0.222
Размер потока : 1,32 Гбайт (91%)
Библиотека кодирования : XviD 1.2.1 (UTC 2008-12-04)

Аудио
Идентификатор : 1
Формат : AC-3
Формат/Информация : Audio Coding 3
Расширение режима : CM (complete main)
Параметр Endianness формата : Big
Идентификатор кодека : 2000
Продолжительность : 1 ч. 36 м.
Вид битрейта : Постоянный
Битрейт : 192 Кбит/сек
Каналы : 2 канала
Расположение каналов : Front: L R
Частота : 48,0 КГц
Частота кадров : 31,250 кадров/сек (1536 spf)
Метод сжатия : С потерями
Размер потока : 133 Мбайт (9%)
Выравнивание : Разделение по промежуткам
Продолжительность промежутка : 40 мс. (1,00 видеокадр)
Время предзагрузки промежутка : 500 мс
pb.wtf



Скачать Весёлые звёзды через торрент http://i079.radikal.ru/1604/ab/26ef12912191.png Скачать фильм Весёлые звёзды через торрент бесплантно в хорошем качестве Описание:В Москву на Всесоюзный конкурс молодых артистов эстрады приезжают два друга: Тарапунька и Штепсель. Начинающие конферансье ... 5 10 1
Info! Золотая раздача, скачанное не засчитывается.
Торрент: Зарегистрирован [2016-04-10 09:24] · скачан: 30 раз
Статус: √ проверено
Размер: 1.46 GB
Как cкачать? Как скачать Весёлые звёзды через торрент | qTorrent

% Раздел Тема Автор DL S | L
Кино СССР [ 1.46 GB ] Весёлые звёзды [1954 СССР музыка SATRip-AVC от AVP Studio] AVP Studio Скачать
1 | 0
Кино СССР [ 744 MB ] Весёлые звёзды [1954 СССР музыка SATRip от AVP Studio] AVP Studio Скачать
1 | 0


>> Регистрируемся здесь <<






Отзывы и комментарии о схеме читаем и пишем здесь: ---> Отзывы и комментарии о схеме

Новые благодарочки в телеграм довольных пользователей:
скриншот   скриншот   скриншот   скриншот   скриншот

12-04-2016 15:32 Весёлые звёзды Скачать торрент  

Увы,до конца не досмотрел.Наверное,слишком большой временной период отдаляет.Уже не интересны и не понятны простецкие шутки,инфантилизм взрослых дядек,советская патетика через край.pb.wtf



    Дорогой пользователь! Огромная просьба, поблагодарите релизера, оцените раздачу и оставьте свои комментарий, если Вы скачали Весёлые звёзды через торрент бесплатно! Внесите свою лепту в развитие PiratBit!
    Комментировать посты могут только пользователи прошедшие не сложную регистрацию
    Показать сообщения:    

    Весёлые звёзды через торрент
    Скачать бесплатно Весёлые звёзды
    Весёлые звёзды скачать торрент
    Весёлые звёзды смотреть онлайн
    Cкачать фильм Весёлые звёзды бесплатно
    Весёлые звёзды скачать торрент в хорошем качестве
    Весёлые звёзды смотреть онлайн бесплатно в хорошем качестве


    Вы не можете начинать темы
    Вы не можете отвечать на сообщения
    Вы не можете редактировать свои сообщения
    Вы не можете удалять свои сообщения
    Вы не можете голосовать в опросах
    Вы не можете прикреплять файлы к сообщениям
    Вы можете скачивать файлы