Marvel's Avengers Deluxe Edition (супер цена) 159р. Внимание количество ограничено!!!

2 сезон

iTunes

iTunes

1

iTunes

iTunes

iTunes

WEBRip

iTunes

30
pack

Новость дня

ВАЖНО

!!Акция!!

Alien_RageХит недели

RePack

Horizon Zero Dawn

ИГРА 18+

pack

RePack

jed

!!Акция!!

Alien_Rage

RePack

fifa19

RePack

Assassins Creed: Odyssey

RePack

NEED FOR SPEED™ PAYBACK

4 сезон

9 сезон

Бесстыжие 9 сезон

Все сериалы

все сериалы на PB.wtf

RePack

FAR CRY 5
  

Как поднять миллион. Исповедь Z@drota (Клим Шипенко) [2014, драма, WEB DLRip] без рекламы pb.wtf

Как поднять миллион. Исповедь Z@drota через торрент pb.wtf

Размер: 1.37 GB | Добавлен: 4 года 5 мес. назад | Торрент скачан:832 раза
Скачать  

10-04-2016 11:34 Как поднять миллион. Исповедь Z@drota Скачать торрент  

Как поднять миллион. Исповедь Z@drota
Год выпуска » 2014
Страна » Россия
Жанр » Спорт, драма
Продолжительность » 01:29:23
Перевод » Не требуется (оригинал)
Субтитры » Отсутствуют

В ролях
» Виктор Грудев, Дмитрий Калязин, Соня Карпунина, Анастасия Акатова, Николай Амосов, Александр Самойленко, Лидия Байрашевская, Михаил Бабичев, Любовь Толкалина, Михаил Довженко и др.

Режиссёр
» Клим Шипенко

» Женя живет в маленьком провинциальном городке. Он просиживает за компьютерами сутками, не отвлекаясь на еду и сон. Однажды Женя выясняет: на виртуальной реальности можно неплохо заработать. Начав с порносайтов, юноша вскоре получает свои первые деньги. Это в корне меняет его жизнь: больше он — не школьный изгой. Вчерашние недруги здороваются первыми, а самые красивые девочки ищут с ним встреч.

Развивая свой бизнес, Женя в итоге оказывается перед выбором: принять законы коррумпированного мира и стать своим в далекой от идеала реальности, или пойти наперерез могущественным структурам, поставив под удар себя и своих близких?

• Качество » WEB-DLRip
• Формат » avi
• Видео кодек » XviD
• Аудио кодек » AC3
• Видео » 720x304 (2.37:1), 25 fps, XviD build 50 ~1799 kbps avg, 0.33 bit/pixel
• Аудио » Русский (AC-3/ 2 ch / 384 kbps / 48,0 КГц / 16 bit )




Бюджет: 51 000 000 руб.

В России:$21 520
Дата российской премьеры: 10 марта 2016, «Cinema Prestige»
Общее
Полное имя : E:\Новая папка (2)\Ispoved.Z@drota.2014.WEB-DLRip.avi
Формат : AVI
Формат/Информация : Audio Video Interleave
Размер файла : 1,37 Гбайт
Продолжительность : 1 ч. 29 м.
Общий поток : 2193 Кбит/сек
Программа кодирования : VirtualDubMod 1.5.10.3 | www.virtualdub-fr.org || (build 2550/release)
Библиотека кодирования : VirtualDubMod build 2550/release

Видео
Идентификатор : 0
Формат : MPEG-4 Visual
Профиль формата : Advanced Simple@L5
Параметр BVOP формата : 2
Параметр QPel формата : Нет
Параметр GMC формата : Без точки перехода
Параметр матрицы формата : Выборочная
Идентификатор кодека : XVID
Идентификатор кодека/Подсказка : XviD
Продолжительность : 1 ч. 29 м.
Битрейт : 1800 Кбит/сек
Ширина : 720 пикселей
Высота : 304 пикселя
Соотношение сторон : 2,35:1
Частота кадров : 25,000 кадров/сек
Цветовое пространство : YUV
Субдискретизация насыщенности : 4:2:0
Битовая глубина : 8 бит
Тип развёртки : Прогрессивная
Метод сжатия : С потерями
Бит/(Пиксели*Кадры) : 0.329
Размер потока : 1,12 Гбайт (82%)
Библиотека кодирования : XviD 1.2.1 (UTC 2008-12-04)

Аудио
Идентификатор : 1
Формат : AC-3
Формат/Информация : Audio Coding 3
Расширение режима : CM (complete main)
Параметр Endianness формата : Big
Идентификатор кодека : 2000
Продолжительность : 1 ч. 29 м.
Вид битрейта : Постоянный
Битрейт : 384 Кбит/сек
Каналы : 2 канала
Расположение каналов : Front: L R
Частота : 48,0 КГц
Битовая глубина : 16 бит
Метод сжатия : С потерями
Размер потока : 246 Мбайт (18%)
Выравнивание : Разделение по промежуткам
Продолжительность промежутка : 40 мс. (1,00 видеокадр)
Время предзагрузки промежутка : 500 мс.
[/code]
скриншот   скриншот   скриншот   скриншот  
pb.wtf



Скачать Как поднять миллион. Исповедь Z@drota через торрент http://i74.fastpic.ru/big/2015/1218/b5/c39d072d168dbcde95d1a17f670689b5.gif Скачать фильм Как поднять миллион. Исповедь Z@drota через торрент бесплантно в хорошем качестве В ролях » Виктор Грудев, Дмитрий Калязин, Соня Карпунина, Анастасия Акатова, Николай Амосов, Александр Самойленко, Лидия Байрашевская, ... 8.6 10 20
Info! Золотая раздача, скачанное не засчитывается.
Торрент: Зарегистрирован [2016-04-10 11:34] · скачан: 832 раз
Статус: T временная
Размер: 1.37 GB
Как cкачать? Как скачать Как поднять миллион. Исповедь Z@drota через торрент | qTorrent

% Раздел Тема Автор DL S | L
T Наши фильмы (HD, WEB-DL 720p, 1080p) [ 2.73 GB ] Как поднять миллион. Исповедь Z@drota [2014 WEB-DL 720p] без рекламы $-DRON-$ Скачать
1 | 0

28-11-2019 20:33  

Отключить всю рекламу на сайте

10-04-2016 11:44 Как поднять миллион. Исповедь Z@drota Скачать торрент  

читал когда то книгу еще в плей маркете скачал с подобным названиям. прочитал с восторгом. надеюсь фильм тоже не плохойpb.wtf



10-04-2016 16:40 Как поднять миллион. Исповедь Z@drota Скачать торрент  

Лично мне , фильм понравился . Трогает за живое . " Отъебучить всю страну "- сильно сказано . Для некоторых , это и есть "национальная идея "...pb.wtf



10-04-2016 21:12 Как поднять миллион. Исповедь Z@drota Скачать торрент  

Фильм супер. спасибо за релизpb.wtf



10-04-2016 23:05 Как поднять миллион. Исповедь Z@drota Скачать торрент  

Норм фильм,рекомендую к просмотру.pb.wtf



11-04-2016 04:52 Как поднять миллион. Исповедь Z@drota Скачать торрент  

фильм хорошый. много интересных моментов упустили из книги. но хорошо показано кто уничтожает страну. "либерота" или "ура" патриоты у власти.pb.wtf



11-04-2016 12:36 Как поднять миллион. Исповедь Z@drota Скачать торрент  

для старшеклассников, что бы готовились- либо сломают, либо нагнут, по закону никак, и вообще какого ... вы еще не в армии.)))pb.wtf



13-05-2016 19:21 Как поднять миллион. Исповедь Z@drota Скачать торрент  

[xer] [mtits]pb.wtf



    Дорогой пользователь! Огромная просьба, поблагодарите релизера, оцените раздачу и оставьте свои комментарий, если Вы скачали Как поднять миллион. Исповедь Z@drota через торрент бесплатно! Внесите свою лепту в развитие PiratBit!
    Комментировать посты могут только пользователи прошедшие не сложную регистрацию
    Показать сообщения:    

    Как поднять миллион. Исповедь Z@drota через торрент
    Скачать бесплатно Как поднять миллион. Исповедь Z@drota
    Как поднять миллион. Исповедь Z@drota скачать торрент
    Как поднять миллион. Исповедь Z@drota смотреть онлайн
    Cкачать фильм Как поднять миллион. Исповедь Z@drota бесплатно
    Как поднять миллион. Исповедь Z@drota скачать торрент в хорошем качестве
    Как поднять миллион. Исповедь Z@drota смотреть онлайн бесплатно в хорошем качестве


    Вы не можете начинать темы
    Вы не можете отвечать на сообщения
    Вы не можете редактировать свои сообщения
    Вы не можете удалять свои сообщения
    Вы не можете голосовать в опросах
    Вы не можете прикреплять файлы к сообщениям
    Вы можете скачивать файлы