Ссылка на приватное зеркало всего за 1$. Внимание количество ограничено!!!

iTunes

iTunes

iTunes

1

iTunes

iTunes

iTunes

iTunes

iTunes

30
pack

Новость дня

ВАЖНО

!!Акция!!

Alien_RageХит недели

RePack

Resident Evil 21

ИГРА 18+

pack

RePack

jed

!!Акция!!

Alien_Rage

RePack

fifa19

RePack

Assassins Creed: Odyssey

RePack

NEED FOR SPEED™ PAYBACK

4 сезон

9 сезон

Бесстыжие 9 сезон

Все сериалы

все сериалы на PB.wtf

RePack

FAR CRY 5
  

Регион 13 (Омар Сункар) [2015 г., боевик, криминал, HDRip, Оригинальный] pb.wtf

Регион 13 через торрент pb.wtf

Размер: 1.36 GB | Добавлен: 4 года 1 мес. назад | Торрент скачан:838 раз
Скачать  

11-04-2016 05:58 Регион 13 Скачать торрент  

Регион 13
Год выпуска: 2015
Страна: Казахстан
Жанр: боевик, криминал
Продолжительность: 01:33:32
Перевод:Оригинальный

Режиссер: Омар Сункар

В ролях: Омар Сункар, Мейрамхан Суннатиллаев, Гани Нуржигитов, Евгения Гуренкова, Арман Ельденбаев, Тахир Ишметов, Мансур Тулешев

Описание: Известный в Южном Казахстане авторитет Багдат по кличке «Багда» получает от своего давнего друга информацию о готовившихся массовых беспорядках и насилию в регионе. Он, конечно же, не может остаться в стороне и пытается всеми способами предотвратить возможные события. Но он даже не подозревает, что за всем этим уже следят сотрудники спецслужб. Дальнейший ход событий заставляет Багду принять решения, от которых зависят судьбы многих и многих людей.

Качество: HDRip
Формат: AVI
Видео кодек: XviD
Аудио кодек: AC3
Видео: XviD, 1746 Kb/s, 720x400, 24,000 кадра/сек
Аудио: AC3, 48.0 KHz, 320 Kb/s (2 ch)
Общее
Полное имя : D:\Скачанное\Регион 13 (2015) HDRip.avi
Формат : AVI
Формат/Информация : Audio Video Interleave
Профиль формата : OpenDML
Размер файла : 1,36 Гбайт
Продолжительность : 1 ч. 33 м.
Общий поток : 2078 Кбит/сек
Программа кодирования : XviD4PSP 6.0 / 54.29.105

Видео
Идентификатор : 0
Формат : xvid
Идентификатор кодека : xvid
Продолжительность : 1 ч. 33 м.
Битрейт : 1746 Кбит/сек
Ширина : 720 пикселей
Высота : 400 пикселей
Соотношение сторон : 16:9
Частота кадров : 24,000 кадра/сек
Тип развёртки : Прогрессивная
Бит/(Пиксели*Кадры) : 0.253
Размер потока : 1,14 Гбайт (84%)

Аудио
Идентификатор : 1
Формат : AC-3
Формат/Информация : Audio Coding 3
Расширение режима : CM (complete main)
Параметр Endianness формата : Big
Идентификатор кодека : 2000
Продолжительность : 1 ч. 33 м.
Вид битрейта : Постоянный
Битрейт : 320 Кбит/сек
Каналы : 2 канала
Расположение каналов : Front: L R
Частота : 44,1 КГц
Частота кадров : 28,711 кадров/сек (1536 spf)
Битовая глубина : 16 бит
Метод сжатия : С потерями
Размер потока : 214 Мбайт (15%)
Выравнивание : Соединение по промежуткам
Продолжительность промежутка : 35 мс. (0,84 видеокадр)
скриншот  скриншот  скриншот  скриншот  
pb.wtf



Скачать Регион 13 через торрент http://i80.fastpic.ru/big/2016/0411/10/36524cdb8a21e3fbfe28ea6191603810.jpg Скачать фильм Регион 13 через торрент бесплантно в хорошем качестве Описание: Известный в Южном Казахстане авторитет Багдат по кличке «Багда» получает от своего давнего друга информацию о готовившихся ... 8.7 10 26
Торрент: Зарегистрирован [2016-04-11 05:58] · скачан: 838 раз
Статус: √ проверено
Размер: 1.36 GB
Как cкачать? Как скачать Регион 13 через торрент | qTorrent

28-11-2019 20:33  

Отключить всю рекламу на сайте

11-04-2016 07:56 Регион 13 Скачать торрент  

Что такое перевод Оригинальный ? Все понял, а как по жизни это офрмление можно заменить (Ну хотя бы "без перевода") , Я уже понял, но сколько еще людей придет.pb.wtf



11-04-2016 18:03 Регион 13 Скачать торрент  

Цитата:

Регион 13 (Омар Сункар) [2015 г., боевик, криминал, HDRip, Оригинальный]

Дайте скорости пожалуйста!pb.wtf



13-04-2016 07:58 Регион 13 Скачать торрент  

шедевр из серии фильмов "что вижу, то пою"! Абалдеть простоpb.wtf



19-04-2016 13:54 Регион 13 Скачать торрент  

подобие на "район 13"pb.wtf



    Дорогой пользователь! Огромная просьба, поблагодарите релизера, оцените раздачу и оставьте свои комментарий, если Вы скачали Регион 13 через торрент бесплатно! Внесите свою лепту в развитие PiratBit!
    Комментировать посты могут только пользователи прошедшие не сложную регистрацию
    Показать сообщения:    

    Регион 13 через торрент
    Скачать бесплатно Регион 13
    Регион 13 скачать торрент
    Регион 13 смотреть онлайн
    Cкачать фильм Регион 13 бесплатно
    Регион 13 скачать торрент в хорошем качестве
    Регион 13 смотреть онлайн бесплатно в хорошем качестве


    Вы не можете начинать темы
    Вы не можете отвечать на сообщения
    Вы не можете редактировать свои сообщения
    Вы не можете удалять свои сообщения
    Вы не можете голосовать в опросах
    Вы не можете прикреплять файлы к сообщениям
    Вы можете скачивать файлы