новый адрес
Мега распродажа FORZA HORIZON 4 ULTIMATE+ВСЕ DLC+ОНЛАЙН всего за 499р. 349 руб. (супер цена). Внимание количество ограничено!!!

iTunes

1+1

iTunes

мы

iTunes

1

iTunes

Чернобыль

iTunes

Ральф против интернета

Лицензия

ПШазам

Лицензия

Игра престолов

Лицензия

30
pack

ВАЖНО

!!Акция!!

Alien_RageХит недели

RePack

Resident Evil 21

ИГРА 18+

pack

RePack

Metro:Exodus

!!Акция!!

Alien_Rage

RePack

fifa19

RePack

Assassins Creed: Odyssey

RePack

NEED FOR SPEED™ PAYBACK

3 сезон

9 сезон

Бесстыжие 9 сезон

Все сериалы

все сериалы на PB.wtf

RePack

FAR CRY 5
Ребята, катастрофически не хватает 1900р. для оплаты серверов за Октябрь (всвязи с блокировками трафик упал в 3 раза), 1-2р., выручайте.
  

Чемпион мира (Владимир Гончуков) [1954, СССР, драма, спорт, SATRip от AVP Studio] pb.wtf

Чемпион мира через торрент pb.wtf

Размер: 1.09 GB | Добавлен: 3 года 7 мес. назад | Торрент скачан:15 раз
Скачать  

12-04-2016 09:12 Чемпион мира Скачать торрент  

Чемпион мира
Страна: СССР
Производство: Московская киностудия художественных фильмов им. М. Горького

Жанр: драма, спорт
Год выпуска: 1954
Продолжительность: 01:20:43

Перевод: Не требуется
Cубтитры: нет
Оригинальная аудиодорожка: русский

Режиссер: Владимир Гончуков

В ролях:
Алексей Ванин, Василий Меркурьев, Владимир Гуляев, Надежда Чередниченко, Клавдия Хабарова, Муза Крепкогорская, Ратмир Васютинский, Анатолий Васютинский, Анатолий Соловьёв, Николай Комиссаров, Борис Терентьев, Георгий Светлани, Галина Фролова...
Полный список актёров

Описание:
Илья Громов слывет среди односельчан знатным силачом. Под руководством опытного тренера простой деревенский парень становится чемпионом мира по классической борьбе.

Источник: DVB
Качество видео: SATRip
Формат видео: AVI

Видео: 688x512 (4:3), 25 fps, XviD ~ 1729 kbps avg, 0.196 bit/pixel
Аудио: 48 kHz, Dolby Digital AC3 2.0, 192 kbps

Раздача от:
Общее
Полное имя : Chempion.mira.1954.SATRip_[New-team]_by_AVP_Studio.avi
Формат : AVI
Формат/Информация : Audio Video Interleave
Размер файла : 1,09 Гбайт
Продолжительность : 1 ч. 20 м.
Общий поток : 1931 Кбит/сек
Программа кодирования : VirtualDubMod 1.5.10.3 | www.virtualdub-fr.org || (build 2550/release)
Библиотека кодирования : VirtualDubMod build 2550/release

Видео
Идентификатор : 0
Формат : MPEG-4 Visual
Профиль формата : Advanced Simple@L5
Параметр BVOP формата : 1
Параметр QPel формата : Нет
Параметр GMC формата : Без точки перехода
Параметр матрицы формата : Выборочная
Идентификатор кодека : XVID
Идентификатор кодека/Подсказка : XviD
Продолжительность : 1 ч. 20 м.
Битрейт : 1729 Кбит/сек
Ширина : 688 пикселей
Высота : 512 пикселей
Соотношение сторон : 4:3
Частота кадров : 25,000 кадров/сек
Цветовое пространство : YUV
Субдискретизация насыщенности : 4:2:0
Битовая глубина : 8 бит
Тип развёртки : Прогрессивная
Метод сжатия : С потерями
Бит/(Пиксели*Кадры) : 0.196
Размер потока : 998 Мбайт (90%)
Библиотека кодирования : XviD 1.2.1 (UTC 2008-12-04)

Аудио
Идентификатор : 1
Формат : AC-3
Формат/Информация : Audio Coding 3
Расширение режима : CM (complete main)
Параметр Endianness формата : Big
Идентификатор кодека : 2000
Продолжительность : 1 ч. 20 м.
Вид битрейта : Постоянный
Битрейт : 192 Кбит/сек
Каналы : 2 канала
Расположение каналов : Front: L R
Частота : 48,0 КГц
Частота кадров : 31,250 кадров/сек (1536 spf)
Метод сжатия : С потерями
Размер потока : 111 Мбайт (10%)
Выравнивание : Разделение по промежуткам
Продолжительность промежутка : 40 мс. (1,00 видеокадр)
Время предзагрузки промежутка : 500 мс
pb.wtf



Скачать Чемпион мира через торрент http://s019.radikal.ru/i635/1702/4b/6eb6b4e32205.png Скачать фильм Чемпион мира через торрент бесплантно в хорошем качестве Описание:Илья Громов слывет среди односельчан знатным силачом. Под руководством опытного тренера простой деревенский парень становится ... 10 10 1
Торрент: Зарегистрирован [2016-04-12 09:12] · скачан: 15 раз
Статус: √ проверено
Размер: 1.09 GB
Как cкачать? Как скачать Чемпион мира через торрент | qTorrent

% Раздел Тема Автор DL S | L
T Релизы по Парсеру [Игры, Сериалы и Фильмы и другое...] [ 3.87 GB ] Снукер. Чемпионат мира 2017. Шеффилд . День 05 [19.04] DVBRip-AVC SEVMASH Скачать
1 | 0
Чемпионат Мира [ 5.25 GB ] Чемпионат Мира 2018 / Отборочный турнир / Европа. Группа I / 5-й тур / Хорватия - Украина / Setanta Sports HD[24.03.2017 Футбол Stream/1080i TS/H.264 RU] POCIK Скачать
1 | 0
Кино СССР [ 1.09 GB ] Чемпион мира [1954 СССР SATRip-AVC от AVP Studio] AVP Studio Скачать
1 | 0
Кино СССР [ 744 MB ] Чемпион мира [1954 СССР SATRip от AVP Studio] AVP Studio Скачать
1 | 0
Чемпионат Мира [ 3.15 GB ] Клубный Чемпионат Мира 2015 / Финал / Ривер Плейт - Барселона / НТВ+ Футбол 1 HD [20.12.2015 Футбол H.264 50fps HDTVRip/720p] кэп Скачать
1 | 0
Спортивные фильмы и передачи [ 2.17 GB ] Гандбол / Женщины / Чемпионат мира - 2015 / Группа A / 2-й тур / Тунис - Дания / НТВ+ HD [06.12.2015 Гандбол HDTVRip/720p/50fps MKV/H.264 RU] кэп Скачать
1 | 0
Международные турниры по хоккею [ 4.57 GB ] Россия- - Финал Чемпионата Мира [2008 Хоккей HDTVRip] batya1972 Скачать
1 | 2


>> Регистрируемся здесь <<






Отзывы и комментарии о схеме читаем и пишем здесь: ---> Отзывы и комментарии о схеме

Новые благодарочки в телеграм довольных пользователей:
скриншот   скриншот   скриншот   скриншот   скриншот
    Дорогой пользователь! Огромная просьба, поблагодарите релизера, оцените раздачу и оставьте свои комментарий, если Вы скачали Чемпион мира через торрент бесплатно! Внесите свою лепту в развитие PiratBit!
    Комментировать посты могут только пользователи прошедшие не сложную регистрацию
    Показать сообщения:    

    Чемпион мира через торрент
    Скачать бесплатно Чемпион мира
    Чемпион мира скачать торрент
    Чемпион мира смотреть онлайн
    Cкачать фильм Чемпион мира бесплатно
    Чемпион мира скачать торрент в хорошем качестве
    Чемпион мира смотреть онлайн бесплатно в хорошем качестве


    Вы не можете начинать темы
    Вы не можете отвечать на сообщения
    Вы не можете редактировать свои сообщения
    Вы не можете удалять свои сообщения
    Вы не можете голосовать в опросах
    Вы не можете прикреплять файлы к сообщениям
    Вы можете скачивать файлы