Ссылка на приватное зеркало нашего сайта всего за 1$. Внимание количество ограничено!!!

2 сезон

iTunes

1 сезон

1

iTunes

iTunes

iTunes

1 сезон

RePack

30

ИГРА 18+

pack

ВАЖНО

!!Акция!!

Alien_RageХит недели

RePack

MK11
pack

Забери бонус

RePack

jed

!!Акция!!

Alien_Rage

RePack

fifa19

RePack

Assassins Creed: Odyssey

RePack

NEED FOR SPEED™ PAYBACK

4 сезон

9 сезон

Бесстыжие 9 сезон

Все сериалы

все сериалы на PB.wtf

RePack

FAR CRY 5
  

Крампус / Krampus (Майкл Догерти) [2015, ужасы, фэнтези, комедия, BDRip 1080p, Дубляж] iTunes pb.wtf

Крампус через торрент pb.wtf

Размер: 7.91 GB | Добавлен: 4 года 6 мес. назад | Торрент скачан:251 раз
Скачать  

13-04-2016 07:29 Крампус Скачать торрент  


Крампус / Krampus
««В этом году Санта Клаус не придёт»»

ИНФОРМАЦИЯ:
Год выпуска:2015
Страна: США, Новая Зеландия
Жанр: ужасы, фэнтези, комедия
Продолжительность: 01:37:40
Перевод: Дубляж - [Лицензия / iTunes]
Режиссер: Майкл Догерти

В Ролях:


Эмджей Энтони (Max Engel), Адам Скотт (Tom Engel), Тони Коллетт (Sarah Engel), Стефания Оуэн (Beth Engel), Криста Штадлер (Omi Engel), Кончата Феррелл (Aunt Dorothy), Эллисон Толман (Linda), Дэвид Кокнер (Howard), Маверик Флэк (Howie Jr), Куеени Сэмюэл (Jordan), Лоло Оуэн (Stevie), Sage Hunefeld (Baby Chrissy)

Описание:
История о демоне, который во время Рождества выискивает непослушных детей, чтобы наказать их.

  • Мировая премьера:30 ноября 2015

    ТЕХ.ДАННЫЕ:
    Качество: BDRip 1080p
    Формат: MKV
    Видео: AVC, 1920x808 (2.40:1), 9705 kbps, 23,976 fps, 0,261 bpp
    Аудио №1: русский / AC3 / 5.1 / 48 kHz / 384 kbps / 16 bit ||
    Аудио №2: английский / DTS / 5.1 / 48 kHz / 1510 kbps / 24 bit
    Навигация по главам: есть


    General
    Unique ID : 209633478197382564467154018263572068224 (0x9DB5F07601B4AE769296FD168B0EB780)
    Complete name : D:\Торент\Krampuss.2016.D.BDRip.1080p.mkv
    Format : Matroska
    Format version : Version 2
    File size : 7.91 GiB
    Duration : 1h 37mn
    Overall bit rate : 11.6 Mbps
    Encoded date : UTC 2016-04-12 22:02:26
    Writing application : mkvmerge v8.3.0 ('Over the Horizon') 64bit
    Writing library : libebml v1.3.1 + libmatroska v1.4.2

    Video
    ID : 2
    Format : AVC
    Format/Info : Advanced Video Codec
    Format profile : High@L4.1
    Format settings, CABAC : Yes
    Format settings, ReFrames : 5 frames
    Codec ID : V_MPEG4/ISO/AVC
    Duration : 1h 37mn
    Bit rate : 9 705 Kbps
    Width : 1 920 pixels
    Height : 808 pixels
    Display aspect ratio : 2.40:1
    Frame rate : 23.976 fps
    Color space : YUV
    Chroma subsampling : 4:2:0
    Bit depth : 8 bits
    Scan type : Progressive
    Bits/(Pixel*Frame) : 0.261
    Stream size : 6.47 GiB (82%)
    Writing library : x264 core 148 r2665 a01e339
    Encoding settings : cabac=1 / ref=5 / deblock=1:0:0 / analyse=0x3:0x133 / me=umh / subme=7 / psy=1 / psy_rd=1.00:0.00 / mixed_ref=1 / me_range=16 / chroma_me=1 / trellis=1 / 8x8dct=1 / cqm=0 / deadzone=21,11 / fast_pskip=0 / chroma_qp_offset=-2 / threads=18 / lookahead_threads=3 / sliced_threads=0 / nr=0 / decimate=1 / interlaced=0 / bluray_compat=0 / constrained_intra=0 / bframes=3 / b_pyramid=2 / b_adapt=1 / b_bias=0 / direct=1 / weightb=1 / open_gop=0 / weightp=2 / keyint=250 / keyint_min=23 / scenecut=40 / intra_refresh=0 / rc_lookahead=40 / rc=2pass / mbtree=1 / bitrate=9705 / ratetol=1.0 / qcomp=0.60 / qpmin=0 / qpmax=69 / qpstep=4 / cplxblur=20.0 / qblur=0.5 / ip_ratio=1.40 / aq=1:1.00
    Language : English
    Default : Yes
    Forced : No

    Audio #1
    ID : 1
    Format : AC-3
    Format/Info : Audio Coding 3
    Mode extension : CM (complete main)
    Codec ID : A_AC3
    Duration : 1h 37mn
    Bit rate mode : Constant
    Bit rate : 384 Kbps
    Channel(s) : 6 channels
    Channel positions : Front: L C R, Side: L R, LFE
    Sampling rate : 48.0 KHz
    Bit depth : 16 bits
    Compression mode : Lossy
    Stream size : 268 MiB (3%)
    Language : Russian
    Default : Yes
    Forced : Yes

    Audio #2
    ID : 3
    Format : DTS
    Format/Info : Digital Theater Systems
    Codec ID : A_DTS
    Duration : 1h 37mn
    Bit rate mode : Constant
    Bit rate : 1 510 Kbps
    Channel(s) : 6 channels
    Channel positions : Front: L C R, Side: L R, LFE
    Sampling rate : 48.0 KHz
    Bit depth : 24 bits
    Compression mode : Lossy
    Stream size : 1.03 GiB (13%)
    Language : English
    Default : No
    Forced : No

    Menu
    00:00:00.000 : en:00:00:00.000
    00:03:20.325 : en:00:03:20.325
    00:07:16.686 : en:00:07:16.686
    00:14:18.066 : en:00:14:18.066
    00:20:02.493 : en:00:20:02.493
    00:27:26.603 : en:00:27:26.603
    00:34:15.845 : en:00:34:15.845
    00:37:44.304 : en:00:37:44.304
    00:42:01.394 : en:00:42:01.394
    00:45:11.959 : en:00:45:11.959
    00:50:29.860 : en:00:50:29.860
    00:56:07.155 : en:00:56:07.155
    01:00:24.412 : en:01:00:24.412
    01:05:34.931 : en:01:05:34.931
    01:09:58.945 : en:01:09:58.945
    01:14:38.349 : en:01:14:38.349
    01:18:30.039 : en:01:18:30.039
    01:23:17.659 : en:01:23:17.659
    01:27:44.634 : en:01:27:44.634
    01:32:27.667 : en:01:32:27.667
    Скриншоты:

    © Оформление by .::Ворон::.
    pb.wtf



  • Скачать Крампус через торрент http://pic.kartinco.top/images/6/ordi9.jpg Скачать фильм Крампус через торрент бесплантно в хорошем качестве Описание: История о демоне, который во время Рождества выискивает непослушных детей, чтобы наказать их. Мировая премьера:30 ноября 2015 ... 9.4 10 17
    Торрент: Зарегистрирован [2016-04-13 07:29] · скачан: 251 раз
    Статус: T временная
    Размер: 7.91 GB
    Как cкачать? Как скачать Крампус через торрент | qTorrent

    % Раздел Тема Автор DL S | L
    Фильмы (HD 720p, 1080p) (48-60 fps) [ 5.96 GB ] Крампус / Krampus [2015 BDRip 720p 60 FPS] - Amantaigo Скачать
    5 | 0
    Фильмы 2015 [DVDrip, WEB-DLRip, HDrip] [ 1.42 GB ] Крампус / Krampus [2015 BDRip] ] Twi7ter Скачать
    1 | 0
    Фильмы 2015 [DVDrip, WEB-DLRip, HDrip] [ 1.46 GB ] Крампус / Krampus [2015 WEB-DLRip] ] Twi7ter Скачать
    1 | 0
    R.G. Resident & PiratVoice - Фильмы, Видео [ 1.46 GB ] Крампус / Krampus [2015 WEB-DLRip-AVC ] schultz Скачать
    1 | 0
    Фильмы 2015 [DVDrip, WEB-DLRip, HDrip] [ 1.37 GB ] Крампус / Krampus [2015 WEB-DLRip] killermax2013 Скачать
    1 | 0
    Фильмы (WEB-DL 720p, 1080p) [ 3 GB ] Крампус / Krampus [2015 WEB-DL 720p] $-DRON-$ Скачать
    2 | 0

    28-11-2019 20:33  

    Отключить всю рекламу на сайте

      Дорогой пользователь! Огромная просьба, поблагодарите релизера, оцените раздачу и оставьте свои комментарий, если Вы скачали Крампус через торрент бесплатно! Внесите свою лепту в развитие PiratBit!
      Комментировать посты могут только пользователи прошедшие не сложную регистрацию
      Показать сообщения:    

      Крампус через торрент
      Скачать бесплатно Крампус
      Крампус скачать торрент
      Крампус смотреть онлайн
      Cкачать фильм Крампус бесплатно
      Крампус скачать торрент в хорошем качестве
      Крампус смотреть онлайн бесплатно в хорошем качестве


      Вы не можете начинать темы
      Вы не можете отвечать на сообщения
      Вы не можете редактировать свои сообщения
      Вы не можете удалять свои сообщения
      Вы не можете голосовать в опросах
      Вы не можете прикреплять файлы к сообщениям
      Вы можете скачивать файлы