Ссылка на приватное зеркало всего за 1$. Внимание количество ограничено!!!

iTunes

iTunes

iTunes

1

iTunes

iTunes

iTunes

iTunes

iTunes

30
pack

$ от Little Big

ВАЖНО

!!Акция!!

Alien_RageХит недели

RePack

Resident Evil 21

ИГРА 18+

pack

RePack

jed

!!Акция!!

Alien_Rage

RePack

fifa19

RePack

Assassins Creed: Odyssey

RePack

NEED FOR SPEED™ PAYBACK

4 сезон

9 сезон

Бесстыжие 9 сезон

Все сериалы

все сериалы на PB.wtf

RePack

FAR CRY 5
  

Пандемия / Pandemic (Джон Суитц) [2016, ужасы, фантастика, боевик, триллер, WEB-DL 720p] MVO [ViruseProject] pb.wtf

Пандемия через торрент pb.wtf

Размер: 2.68 GB | Добавлен: 4 года 3 мес. назад | Торрент скачан:323 раза
Скачать  

13-04-2016 09:16 Пандемия Скачать торрент  

Информация о фильме

Название: Пандемия

Оригинальное название: Pandemic

Год выхода: 2016

Страна: США / New Artists Alliance, Tadross Media Group, Parkside Pictures

Жанр: ужасы, фантастика, боевик, триллер

Режиссер: Джон Суитц

Продолжительность: 01:32:28

Перевод: Любительский (многоголосый, закадровый) [ViruseProject]

Субтитры: нет



В ролях: Рэйчел Николс, Мисси Пайл, Элфи Оуэн-Аллен, Мекхай Файфер, Пол Гилфойл, Даниэль Роуз Расселл, Джина Ли, Джонатан Бакхаус и др.

Описание:

На планете Земля зверствует страшный вирус, превращающий людей в безмозглых и агрессивных тварей. Доктор Лорен в составе небольшой группы направлена в центр города с заданием найти и спасти незаражённых выживших...

ВНИМАНИЕ! В релизе присутствует реклама!

Файл

Качество: WEB-DL 720p

Формат: MKV

Видео: AVC, 1280x528 (2.40:1), 23.976 fps, 3 964 Kbps, 8 bits

Аудио: русский, AC-3, 2 ch, ~ 192 Кбит/с, 48,0 КГц

Семпл

Код:

Общее
Уникальный идентификатор                 : 196550559817688744302056209196500880959 (0x93DE42C8A1B4487484D32434B7838E3F)
Полное имя                               : H:\Pandemic.2016.720p.ViruseProject.mkv
Формат                                   : Matroska
Версия формата                           : Version 4 / Version 2
Размер файла                             : 2,68 Гбайт
Продолжительность                        : 1 ч. 32 м.
Общий поток                              : 4157 Кбит/сек
Дата кодирования                         : UTC 2016-04-13 05:32:08
Программа кодирования                    : mkvmerge v6.5.0 ('Isn't she lovely') built on Oct 20 2013 12:50:05
Библиотека кодирования                   : libebml v1.3.0 + libmatroska v1.4.1

Видео
Идентификатор                            : 1
Формат                                   : AVC
Формат/Информация                        : Advanced Video Codec
Профиль формата                          : High@L3.1
Параметр CABAC формата                   : Да
Параметр ReFrames формата                : 3 кадра
Идентификатор кодека                     : V_MPEG4/ISO/AVC
Продолжительность                        : 1 ч. 32 м.
Битрейт                                  : 3964 Кбит/сек
Ширина                                   : 1280 пикселей
Высота                                   : 528 пикселей
Соотношение сторон                       : 2,40:1
Режим частоты кадров                     : Постоянный
Частота кадров                           : 23,976 (24000/1001) кадра/сек
Цветовое пространство                    : YUV
Субдискретизация насыщенности            : 4:2:0
Битовая глубина                          : 8 бит
Тип развёртки                            : Прогрессивная
Бит/(Пиксели*Кадры)                      : 0.245
Размер потока                            : 2,51 Гбайт (93%)
Библиотека кодирования                   : x264 core 79 r1342kMod e8501ef
Настройки программы                      : cabac=1 / ref=3 / deblock=1:0:0 / analyse=0x3:0x113 / me=hex / subme=7 / psy=1 / psy_rd=1.0:0.0 / mixed_ref=1 / me_range=16 / chroma_me=1 / trellis=1 / 8x8dct=1 / cqm=0 / deadzone=21,11 / chroma_qp_offset=-2 / threads=12 / nr=0 / decimate=1 / mbaff=0 / constrained_intra=0 / bframes=3 / b_pyramid=0 / b_adapt=1 / b_bias=0 / direct=1 / wpredb=1 / wpredp=2 / keyint=250 / keyint_min=25 / scenecut=40 / rc_lookahead=40 / rc=2pass / mbtree=1 / bitrate=3964 / ratetol=1.0 / qcomp=0.60 / qpmin=10 / qpmax=51 / qpstep=4 / cplxblur=20.0 / qblur=0.5 / ip_ratio=1.40 / aq=1:1.00
Default                                  : Да
Forced                                   : Нет

Аудио
Идентификатор                            : 2
Формат                                   : AC-3
Формат/Информация                        : Audio Coding 3
Расширение режима                        : CM (complete main)
Параметр Endianness формата              : Big
Идентификатор кодека                     : A_AC3
Продолжительность                        : 1 ч. 32 м.
Вид битрейта                             : Постоянный
Битрейт                                  : 192 Кбит/сек
Каналы                                   : 2 канала
Расположение каналов                     : Front: L R
Частота                                  : 48,0 КГц
Частота кадров                           : 31,250 кадров/сек (1536 spf)
Метод сжатия                             : С потерями
Размер потока                            : 127 Мбайт (5%)
Заголовок                                : ViruseProject
Язык                                     : Russian
Default                                  : Да
Forced                                   : Нет

Релиз студии: pb.wtf



Скачать Пандемия через торрент http://i80.fastpic.ru/big/2016/0413/db/5950c67dc6b21c3786ee67662c519adb.jpg Скачать фильм Пандемия через торрент бесплантно в хорошем качестве Описание: На планете Земля зверствует страшный вирус, превращающий людей в безмозглых и агрессивных тварей. Доктор Лорен в составе ... 10 10 9
Торрент: Зарегистрирован [2016-04-13 09:16] · скачан: 323 раз
Статус: T временная
Размер: 2.68 GB
Как cкачать? Как скачать Пандемия через торрент | qTorrent

% Раздел Тема Автор DL S | L
Документальные фильмы и телепередачи [ 9.26 GB ] Пандемия: Как предотвратить распространение / Pandemic: How to Prevent an Outbreak / Сезон: 1 / Серии: 1-6 из 6 [2020 документальный медицина WEBRip 720p] MVO [HDRezka Studio] bober100 Скачать
1 | 0
Фильмы 2006-2008 [ 4.85 GB ] Пандемия / Pandemic [2007 HDRip-AVC] - ExKinoRay Enigma2010 Скачать
5 | 0
T Фильмы [HD 720p, 1080p] (Хороший звук DUB, MVO) [ 4.49 GB ] Пандемия / Pandemic [2016 BDRip 720p] MVO DINO-UFO Скачать
1 | 0
T Фильмы 2016 [DVDrip, WEB-DLRip, HDrip] (DUB, MVO) [ 1.37 GB ] Пандемия / Pandemic [2016 HDRip] MVO $-DRON-$ Скачать
1 | 0
Фильмы 2006-2008 [ 1.37 GB ] Пандемия / Pandemic [2009 DVDRip] alexandr1974 Скачать
1 | 0

28-11-2019 20:33  

Отключить всю рекламу на сайте

13-04-2016 09:59 Пандемия Скачать торрент  

норм кинчик или для тв3?pb.wtf



13-04-2016 10:56 Пандемия Скачать торрент  

как фильм?pb.wtf



13-04-2016 10:59 Пандемия Скачать торрент  

Цитата:

На планете Земля зверствует страшный вирус, превращающий людей в безмозглых и агрессивных тварей.

так то походу уже не первое тысячелетие он зверствует)pb.wtf



13-04-2016 11:11 Пандемия Скачать торрент  

ты угадалpb.wtf



13-04-2016 11:30 Пандемия Скачать торрент  

кинчик фигня полная , задумка уже не новая , сюжет не о чём , съёмки тоже . короче потраченное время в пустую . идея вида от первого лица конечно не плохая , но блин в 2D это не смотрится совсемpb.wtf



    Дорогой пользователь! Огромная просьба, поблагодарите релизера, оцените раздачу и оставьте свои комментарий, если Вы скачали Пандемия через торрент бесплатно! Внесите свою лепту в развитие PiratBit!
    Комментировать посты могут только пользователи прошедшие не сложную регистрацию
    Показать сообщения:    

    Пандемия через торрент
    Скачать бесплатно Пандемия
    Пандемия скачать торрент
    Пандемия смотреть онлайн
    Cкачать фильм Пандемия бесплатно
    Пандемия скачать торрент в хорошем качестве
    Пандемия смотреть онлайн бесплатно в хорошем качестве


    Вы не можете начинать темы
    Вы не можете отвечать на сообщения
    Вы не можете редактировать свои сообщения
    Вы не можете удалять свои сообщения
    Вы не можете голосовать в опросах
    Вы не можете прикреплять файлы к сообщениям
    Вы можете скачивать файлы