Ссылка на приватное зеркало нашего сайта всего за 1$. Внимание количество ограничено!!!

2 сезон

iTunes

1 сезон

1

iTunes

iTunes

iTunes

1 сезон

RePack

30

ИГРА 18+

pack

ВАЖНО

!!Акция!!

Alien_RageХит недели

RePack

MK11
pack

Забери бонус

RePack

jed

!!Акция!!

Alien_Rage

RePack

fifa19

RePack

Assassins Creed: Odyssey

RePack

NEED FOR SPEED™ PAYBACK

4 сезон

9 сезон

Бесстыжие 9 сезон

Все сериалы

все сериалы на PB.wtf

RePack

FAR CRY 5
  

Птица с хрустальным оперением / L' Uccello dalle piume di cristallo (Дарио Ардженто) [1970, ужасы, триллер, детектив, BDRip 1080p by msltel] DVO, 2 x AVO pb.wtf

Птица с хрустальным оперением через торрент pb.wtf

Размер: 11.9 GB | Добавлен: 4 года 6 мес. назад | Торрент скачан:12 раз
Скачать  

13-04-2016 12:27 Птица с хрустальным оперением Скачать торрент  

Название: Птица с хрустальным оперением
Оригинальное название: L' Uccello dalle piume di cristallo
Год выпуска: 1970
Страна: Италия, Германия (ФРГ)
Жанр: ужасы, триллер, детектив
Продолжительность: 01:36:30
Перевод: профессиональный двухголосый, авторский

Режиссёр: Дарио Ардженто

В ролях: Тони Мусанте, Сьюзи Кендалл, Энрико Мария Салерно, Ева Ренци, Умберто Рахо, Ренато Романо, Джузеппе Кастеллано, Марио Адорф, Пино Патти, Джильдо Ди Марко, Несторе Кавариччи

Описание: Маньяк и его чёрные дела появляются в древнем, и таком беззащитном, городе Риме, и нет пощады одиноким женщинам, если они не имеют в этот поздний час спутника, способного отстоять не только их честь, но и жизнь.
Однажды по ночному Риму брёл скучающий американский литератор. И вот он становится случайным свидетелем зверского преступления в картинной галерее — пострадала жена хозяина галереи...



Качество: BDRip 1080p
Формат: MKV
Видео: MPEG-4 AVC, 14.9 Mбит/с, 1910x846, 23,976 кадра/с
Аудио 1: русский, DTS, 768 kbps, 6 ch, 48 kHz [профессиональный двухголосый, Пётр Гланц и Инна Королёва]
Аудио 2: русский, DTS, 768 kbps, 6 ch, 48 kHz [авторский, Андрей Гаврилов]
Аудио 3: русский, DTS, 768 kbps, 6 ch, 48 kHz [авторский, Сергей Визгунов]
Аудио 4: английский, AC3, 448 kbps, 6 ch, 48 kHz [оригинал]
Субтитры: английские
Общее
Уникальный идентификатор : 176257800511338001134010784636762199374 (0x849A048104A9EC1C9D4B67C51236154E)
Полное имя : D:\Video\Птица с хрустальным оперением.1970.BDRip.1080p.mkv
Формат : Matroska
Версия формата : Version 4 / Version 2
Размер файла : 11,9 Гбайт
Продолжительность : 1 ч. 36 м.
Общий поток : 17,7 Мбит/сек
Дата кодирования : UTC 2016-04-13 09:50:57
Программа кодирования : mkvmerge v8.2.0 ('World of Adventure') 64bit
Библиотека кодирования : libebml v1.3.1 + libmatroska v1.4.2

Видео
Идентификатор : 1
Формат : AVC
Формат/Информация : Advanced Video Codec
Профиль формата : High@L4.1
Параметр CABAC формата : Да
Параметр ReFrames формата : 4 кадра
Идентификатор кодека : V_MPEG4/ISO/AVC
Продолжительность : 1 ч. 36 м.
Битрейт : 14,9 Мбит/сек
Ширина : 1910 пикселей
Высота : 816 пикселей
Соотношение сторон : 2,35:1
Режим частоты кадров : Постоянный
Частота кадров : 23,976 (24000/1001) кадра/сек
Цветовое пространство : YUV
Субдискретизация насыщенности : 4:2:0
Битовая глубина : 8 бит
Тип развёртки : Прогрессивная
Бит/(Пиксели*Кадры) : 0.399
Размер потока : 10,0 Гбайт (84%)
Библиотека кодирования : x264 core 146 r2538 121396c
Настройки программы : cabac=1 / ref=4 / deblock=1:-3:-3 / analyse=0x3:0x113 / me=umh / subme=10 / psy=1 / psy_rd=1.00:0.15 / mixed_ref=1 / me_range=32 / chroma_me=1 / trellis=2 / 8x8dct=1 / cqm=0 / deadzone=21,11 / fast_pskip=1 / chroma_qp_offset=-3 / threads=6 / lookahead_threads=1 / sliced_threads=0 / nr=0 / decimate=1 / interlaced=0 / bluray_compat=0 / constrained_intra=0 / bframes=13 / b_pyramid=2 / b_adapt=2 / b_bias=0 / direct=1 / weightb=1 / open_gop=0 / weightp=2 / keyint=230 / keyint_min=23 / scenecut=40 / intra_refresh=0 / rc_lookahead=40 / rc=crf / mbtree=0 / crf=21.5 / qcomp=0.60 / qpmin=0 / qpmax=69 / qpstep=4 / vbv_maxrate=40000 / vbv_bufsize=50000 / crf_max=0.0 / nal_hrd=none / filler=0 / ip_ratio=1.40 / pb_ratio=1.30 / aq=1:1.00
Язык : Italian
Default : Да
Forced : Нет

Аудио #1
Идентификатор : 2
Формат : DTS
Формат/Информация : Digital Theater Systems
Режим : 16
Параметр Endianness формата : Big
Идентификатор кодека : A_DTS
Продолжительность : 1 ч. 36 м.
Вид битрейта : Постоянный
Битрейт : 768 Кбит/сек
Каналы : 6 каналов
Расположение каналов : Front: L C R, Side: L R, LFE
Частота : 48,0 КГц
Частота кадров : 93,750 кадра/сек (512 spf)
Битовая глубина : 16 бит
Метод сжатия : С потерями
Размер потока : 530 Мбайт (4%)
Заголовок : DVO (Пётр Гланц и Инна Королёва)
Язык : Russian
Default : Да
Forced : Нет

Аудио #2
Идентификатор : 3
Формат : DTS
Формат/Информация : Digital Theater Systems
Режим : 16
Параметр Endianness формата : Big
Идентификатор кодека : A_DTS
Продолжительность : 1 ч. 36 м.
Вид битрейта : Постоянный
Битрейт : 768 Кбит/сек
Каналы : 6 каналов
Расположение каналов : Front: L C R, Side: L R, LFE
Частота : 48,0 КГц
Частота кадров : 93,750 кадра/сек (512 spf)
Битовая глубина : 16 бит
Метод сжатия : С потерями
Размер потока : 530 Мбайт (4%)
Заголовок : AVO (Андрей Гаврилов)
Язык : Russian
Default : Нет
Forced : Нет

Аудио #3
Идентификатор : 4
Формат : DTS
Формат/Информация : Digital Theater Systems
Режим : 16
Параметр Endianness формата : Big
Идентификатор кодека : A_DTS
Продолжительность : 1 ч. 36 м.
Вид битрейта : Постоянный
Битрейт : 768 Кбит/сек
Каналы : 6 каналов
Расположение каналов : Front: L C R, Side: L R, LFE
Частота : 48,0 КГц
Частота кадров : 93,750 кадра/сек (512 spf)
Битовая глубина : 16 бит
Метод сжатия : С потерями
Размер потока : 530 Мбайт (4%)
Заголовок : AVO (Сергей Визгунов)
Язык : Russian
Default : Нет
Forced : Нет

Аудио #4
Идентификатор : 5
Формат : AC-3
Формат/Информация : Audio Coding 3
Расширение режима : CM (complete main)
Параметр Endianness формата : Big
Идентификатор кодека : A_AC3
Продолжительность : 1 ч. 36 м.
Вид битрейта : Постоянный
Битрейт : 448 Кбит/сек
Каналы : 6 каналов
Расположение каналов : Front: L C R, Side: L R, LFE
Частота : 48,0 КГц
Частота кадров : 31,250 кадров/сек (1536 spf)
Метод сжатия : С потерями
Размер потока : 309 Мбайт (3%)
Заголовок : Original
Язык : Italian
Default : Нет
Forced : Нет

Текст
Идентификатор : 6
Формат : UTF-8
Идентификатор кодека : S_TEXT/UTF8
Идентификатор кодека/Информация : UTF-8 Plain Text
Продолжительность : 1 ч. 32 м.
Битрейт : 45 бит/сек
Count of elements : 879
Размер потока : 31,1 Кбайт (0%)
Заголовок : английский
Язык : English
Default : Нет
Forced : Нет
pb.wtf



Скачать Птица с хрустальным оперением через торрент http://s41.radikal.ru/i091/1604/b6/4a20f771cf01.jpg Скачать фильм Птица с хрустальным оперением через торрент бесплантно в хорошем качестве Описание: Маньяк и его чёрные дела появляются в древнем, и таком беззащитном, городе Риме, и нет пощады одиноким женщинам, если они не ... 7.8 10 5
Info! Золотая раздача, скачанное не засчитывается.
Торрент: Зарегистрирован [2016-04-13 12:27] · скачан: 12 раз
Статус: √ проверено
Размер: 11.9 GB
Как cкачать? Как скачать Птица с хрустальным оперением через торрент | qTorrent

28-11-2019 20:33  

Отключить всю рекламу на сайте

    Дорогой пользователь! Огромная просьба, поблагодарите релизера, оцените раздачу и оставьте свои комментарий, если Вы скачали Птица с хрустальным оперением через торрент бесплатно! Внесите свою лепту в развитие PiratBit!
    Комментировать посты могут только пользователи прошедшие не сложную регистрацию
    Показать сообщения:    

    Птица с хрустальным оперением через торрент
    Скачать бесплатно Птица с хрустальным оперением
    Птица с хрустальным оперением скачать торрент
    Птица с хрустальным оперением смотреть онлайн
    Cкачать фильм Птица с хрустальным оперением бесплатно
    Птица с хрустальным оперением скачать торрент в хорошем качестве
    Птица с хрустальным оперением смотреть онлайн бесплатно в хорошем качестве


    Вы не можете начинать темы
    Вы не можете отвечать на сообщения
    Вы не можете редактировать свои сообщения
    Вы не можете удалять свои сообщения
    Вы не можете голосовать в опросах
    Вы не можете прикреплять файлы к сообщениям
    Вы можете скачивать файлы