Ссылка на приватное зеркало всего за 1$. Внимание количество ограничено!!!

iTunes

1+1

iTunes

мы

WEB-DL

1

iTunes

Чернобыль

iTunes

Ральф против интернета

Лицензия

ПШазам

Лицензия

Оно 2

Лицензия

30
pack

Вам бонус

ВАЖНО

!!Акция!!

Alien_RageХит недели

RePack

Resident Evil 21

ИГРА 18+

pack

RePack

jed

!!Акция!!

Alien_Rage

RePack

fifa19

RePack

Assassins Creed: Odyssey

RePack

NEED FOR SPEED™ PAYBACK

3 сезон

9 сезон

Бесстыжие 9 сезон

Все сериалы

все сериалы на PB.wtf

RePack

FAR CRY 5
Ребята, катастрофически не хватает 1900р. для оплаты серверов за Октябрь (всвязи с блокировками трафик упал в 3 раза), 1-2р., выручайте.
  

Морской охотник (Владимир Немоляев) [1954, СССР, драма, военный, приключения, SATRip от AVP Studio] pb.wtf

Морской охотник через торрент pb.wtf

Размер: 744 MB | Добавлен: 3 года 8 мес. назад | Торрент скачан:19 раз
Скачать  

14-04-2016 08:05 Морской охотник Скачать торрент  

Морской охотник
Страна: СССР
Производство: Мосфильм, Черноморская кинофабрика

Жанр: драма, военный, приключения
Год выпуска: 1954
Продолжительность: 01:06:46

Перевод: Не требуется
Cубтитры: нет
Оригинальная аудиодорожка: русский

Режиссер: Владимир Немоляев

В ролях:
Надежда Румянцева, Павел Волков, Юрий Пузырёв, Ольга Хорькова, Юрий Леонидов (II), Пётр Чернов, Евгений Леонов, Надир Малишевский, С. Бебешко, Нина Шорина, Люба Балдина, Миша Пинский...
Полный список актёров

Описание:
Фильм снят по одноименной повести Николая Чуковского.
Действие происходит в годы Великой Отечественной войны в зоне боев за черноморское побережье. Советские моряки выслеживают вражескую подводную лодку. Тем временем командир морского охотника вместе с одним из матросов не возвращаются из разведки. Юные патриотки Катя и Лида сообщают на катер о сигнале неизвестных друзей, заметивших подводную лодку. Благодаря этому советские моряки топят вражескую лодку, а отважная пионерка Катя, хорошо знающая горные тропинки побережья, обнаруживает в одной из пещер командира морского охотника.

Источник: DVB
Качество видео: SATRip
Формат видео: AVI

Видео: 688x512 (4:3), 25 fps, XviD ~ 1357 kbps avg, 0.154 bit/pixel
Аудио: 48 kHz, Dolby Digital AC3 2.0, 192 kbps

Раздача от:
Общее
Полное имя : Morskoy.ohotnik.1954.SATRip_[New-team]_by_AVP_Studio.avi
Формат : AVI
Формат/Информация : Audio Video Interleave
Размер файла : 744 Мбайт
Продолжительность : 1 ч. 6 м.
Общий поток : 1559 Кбит/сек
Программа кодирования : VirtualDubMod 1.5.10.3 | www.virtualdub-fr.org || (build 2550/release)
Библиотека кодирования : VirtualDubMod build 2550/release

Видео
Идентификатор : 0
Формат : MPEG-4 Visual
Профиль формата : Advanced Simple@L5
Параметр BVOP формата : 1
Параметр QPel формата : Нет
Параметр GMC формата : Без точки перехода
Параметр матрицы формата : Выборочная
Идентификатор кодека : XVID
Идентификатор кодека/Подсказка : XviD
Продолжительность : 1 ч. 6 м.
Битрейт : 1357 Кбит/сек
Ширина : 688 пикселей
Высота : 512 пикселей
Соотношение сторон : 4:3
Частота кадров : 25,000 кадров/сек
Цветовое пространство : YUV
Субдискретизация насыщенности : 4:2:0
Битовая глубина : 8 бит
Тип развёртки : Прогрессивная
Метод сжатия : С потерями
Бит/(Пиксели*Кадры) : 0.154
Размер потока : 648 Мбайт (87%)
Библиотека кодирования : XviD 1.2.1 (UTC 2008-12-04)

Аудио
Идентификатор : 1
Формат : AC-3
Формат/Информация : Audio Coding 3
Расширение режима : CM (complete main)
Параметр Endianness формата : Big
Идентификатор кодека : 2000
Продолжительность : 1 ч. 6 м.
Вид битрейта : Постоянный
Битрейт : 192 Кбит/сек
Каналы : 2 канала
Расположение каналов : Front: L R
Частота : 48,0 КГц
Частота кадров : 31,250 кадров/сек (1536 spf)
Метод сжатия : С потерями
Размер потока : 91,7 Мбайт (12%)
Выравнивание : Разделение по промежуткам
Продолжительность промежутка : 40 мс. (1,00 видеокадр)
Время предзагрузки промежутка : 500 мс
pb.wtf



Скачать Морской охотник через торрент http://s018.radikal.ru/i522/1604/3b/01dabda73c3e.png Скачать фильм Морской охотник через торрент бесплантно в хорошем качестве Описание:Фильм снят по одноименной повести Николая Чуковского.Действие происходит в годы Великой Отечественной войны в зоне боев за ... 10 10 1
Info! Золотая раздача, скачанное не засчитывается.
Торрент: Зарегистрирован [2016-04-14 08:05] · скачан: 19 раз
Статус: √ проверено
Размер: 744 MB
Как cкачать? Как скачать Морской охотник через торрент | qTorrent

% Раздел Тема Автор DL S | L
Кино СССР [ 744 MB ] Морской охотник [1954 СССР военный SATRip-AVC от AVP Studio] AVP Studio Скачать
1 | 0
RTS (стратегии в реальном времени) [ 945 MB ] Морской охотник: Южный гамбит [RepackRUАкелла] Shmel Скачать
1 | 0
RTS (стратегии в реальном времени) [ 1.22 GB ] Морской Охотник / PT Boats: Knights of the Sea [лицензия RU Studio 4] DEVI Скачать
1 | 0

28-11-2019 20:33  

Отключить всю рекламу на сайте

    Дорогой пользователь! Огромная просьба, поблагодарите релизера, оцените раздачу и оставьте свои комментарий, если Вы скачали Морской охотник через торрент бесплатно! Внесите свою лепту в развитие PiratBit!
    Комментировать посты могут только пользователи прошедшие не сложную регистрацию
    Показать сообщения:    

    Морской охотник через торрент
    Скачать бесплатно Морской охотник
    Морской охотник скачать торрент
    Морской охотник смотреть онлайн
    Cкачать фильм Морской охотник бесплатно
    Морской охотник скачать торрент в хорошем качестве
    Морской охотник смотреть онлайн бесплатно в хорошем качестве


    Вы не можете начинать темы
    Вы не можете отвечать на сообщения
    Вы не можете редактировать свои сообщения
    Вы не можете удалять свои сообщения
    Вы не можете голосовать в опросах
    Вы не можете прикреплять файлы к сообщениям
    Вы можете скачивать файлы