новый адрес
Ссылка на приватное зеркало всего за 1$. Внимание количество ограничено!!!

iTunes

1+1

iTunes

мы

iTunes

1

iTunes

Чернобыль

iTunes

Ральф против интернета

Лицензия

ПШазам

Лицензия

Оно 2

Лицензия

30
pack

Вам бонус

ВАЖНО

!!Акция!!

Alien_RageХит недели

RePack

Resident Evil 21

ИГРА 18+

pack

RePack

jed

!!Акция!!

Alien_Rage

RePack

fifa19

RePack

Assassins Creed: Odyssey

RePack

NEED FOR SPEED™ PAYBACK

3 сезон

9 сезон

Бесстыжие 9 сезон

Все сериалы

все сериалы на PB.wtf

RePack

FAR CRY 5
Ребята, катастрофически не хватает 1900р. для оплаты серверов за Октябрь (всвязи с блокировками трафик упал в 3 раза), 1-2р., выручайте.
  

Морской охотник (Владимир Немоляев) [1954, СССР, драма, военный, приключения, SATRip-AVC от AVP Studio] pb.wtf

Морской охотник через торрент pb.wtf

Размер: 744 MB | Добавлен: 3 года 7 мес. назад | Торрент скачан:32 раза
Скачать  

14-04-2016 08:06 Морской охотник Скачать торрент  

Морской охотник
Страна: СССР
Производство: Мосфильм, Черноморская кинофабрика

Жанр: драма, военный, приключения
Год выпуска: 1954
Продолжительность: 01:06:46

Перевод: Не требуется
Cубтитры: нет
Оригинальная аудиодорожка: русский

Режиссер: Владимир Немоляев

В ролях:
Надежда Румянцева, Павел Волков, Юрий Пузырёв, Ольга Хорькова, Юрий Леонидов (II), Пётр Чернов, Евгений Леонов, Надир Малишевский, С. Бебешко, Нина Шорина, Люба Балдина, Миша Пинский...
Полный список актёров

Описание:
Фильм снят по одноименной повести Николая Чуковского.
Действие происходит в годы Великой Отечественной войны в зоне боев за черноморское побережье. Советские моряки выслеживают вражескую подводную лодку. Тем временем командир морского охотника вместе с одним из матросов не возвращаются из разведки. Юные патриотки Катя и Лида сообщают на катер о сигнале неизвестных друзей, заметивших подводную лодку. Благодаря этому советские моряки топят вражескую лодку, а отважная пионерка Катя, хорошо знающая горные тропинки побережья, обнаруживает в одной из пещер командира морского охотника.

Источник: DVB
Качество видео: SATRip-AVC
Формат видео: MKV

Видео: 696->762x572 (4:3), 25 fps, H264 ~ 1365 kbps avg, 0.137 bit/pixel
Аудио: 48 kHz, Dolby Digital AC3 2.0, 192 kbps

Раздача от:
Общее
Полное имя : Morskoy.ohotnik.1954.SATRip-AVC_[New-team]_by_AVP_Studio.mkv
Формат : Matroska
Версия формата : Version 2
Размер файла : 744 Мбайт
Продолжительность : 1 ч. 6 м.
Общий поток : 1559 Кбит/сек
Дата кодирования : UTC 2016-04-11 18:11:03
Программа кодирования : mkvmerge v6.1.0 ('Old Devil') built on Mar 4 2013 09:10:42
Библиотека кодирования : libebml v1.3.0 + libmatroska v1.4.0

Видео
Идентификатор : 1
Формат : AVC
Формат/Информация : Advanced Video Codec
Профиль формата : High@L4.1
Параметр CABAC формата : Да
Параметр ReFrames формата : 10 кадров
Идентификатор кодека : V_MPEG4/ISO/AVC
Продолжительность : 1 ч. 6 м.
Битрейт : 1365 Кбит/сек
Ширина : 696 пикселей
Высота : 572 пикселя
Соотношение сторон : 4:3
Режим частоты кадров : Постоянный
Частота кадров : 25,000 кадров/сек
Цветовое пространство : YUV
Субдискретизация насыщенности : 4:2:0
Битовая глубина : 8 бит
Тип развёртки : Прогрессивная
Бит/(Пиксели*Кадры) : 0.137
Размер потока : 638 Мбайт (86%)
Библиотека кодирования : x264 core 148 r2597 e86f3a1
Настройки программы : cabac=1 / ref=10 / deblock=1:-2:-1 / analyse=0x3:0x113 / me=umh / subme=10 / psy=1 / psy_rd=1.00:0.00 / mixed_ref=1 / me_range=32 / chroma_me=1 / trellis=2 / 8x8dct=1 / cqm=0 / deadzone=21,11 / fast_pskip=1 / chroma_qp_offset=-2 / threads=6 / lookahead_threads=1 / sliced_threads=0 / nr=0 / decimate=0 / interlaced=0 / bluray_compat=0 / constrained_intra=0 / bframes=8 / b_pyramid=2 / b_adapt=2 / b_bias=0 / direct=3 / weightb=1 / open_gop=0 / weightp=2 / keyint=250 / keyint_min=25 / scenecut=40 / intra_refresh=0 / rc=2pass / mbtree=0 / bitrate=1365 / ratetol=1.0 / qcomp=0.60 / qpmin=0 / qpmax=69 / qpstep=4 / cplxblur=20.0 / qblur=0.5 / ip_ratio=1.40 / pb_ratio=1.30 / aq=1:1.00
Default : Да
Forced : Нет

Аудио
Идентификатор : 2
Формат : AC-3
Формат/Информация : Audio Coding 3
Расширение режима : CM (complete main)
Параметр Endianness формата : Big
Идентификатор кодека : A_AC3
Продолжительность : 1 ч. 6 м.
Вид битрейта : Постоянный
Битрейт : 192 Кбит/сек
Каналы : 2 канала
Расположение каналов : Front: L R
Частота : 48,0 КГц
Частота кадров : 31,250 кадров/сек (1536 spf)
Метод сжатия : С потерями
Размер потока : 91,7 Мбайт (12%)
Default : Да
Forced : Нет
pb.wtf



Скачать Морской охотник через торрент http://s018.radikal.ru/i522/1604/3b/01dabda73c3e.png Скачать фильм Морской охотник через торрент бесплантно в хорошем качестве Описание:Фильм снят по одноименной повести Николая Чуковского.Действие происходит в годы Великой Отечественной войны в зоне боев за ... 10 10 2
Info! Золотая раздача, скачанное не засчитывается.
Торрент: Зарегистрирован [2016-04-14 08:06] · скачан: 32 раз
Статус: √ проверено
Размер: 744 MB
Как cкачать? Как скачать Морской охотник через торрент | qTorrent

% Раздел Тема Автор DL S | L
Кино СССР [ 744 MB ] Морской охотник [1954 СССР военный SATRip от AVP Studio] AVP Studio Скачать
1 | 0
RTS (стратегии в реальном времени) [ 945 MB ] Морской охотник: Южный гамбит [RepackRUАкелла] Shmel Скачать
1 | 0
RTS (стратегии в реальном времени) [ 1.22 GB ] Морской Охотник / PT Boats: Knights of the Sea [лицензия RU Studio 4] DEVI Скачать
1 | 0
    Дорогой пользователь! Огромная просьба, поблагодарите релизера, оцените раздачу и оставьте свои комментарий, если Вы скачали Морской охотник через торрент бесплатно! Внесите свою лепту в развитие PiratBit!
    Комментировать посты могут только пользователи прошедшие не сложную регистрацию
    Показать сообщения:    

    Морской охотник через торрент
    Скачать бесплатно Морской охотник
    Морской охотник скачать торрент
    Морской охотник смотреть онлайн
    Cкачать фильм Морской охотник бесплатно
    Морской охотник скачать торрент в хорошем качестве
    Морской охотник смотреть онлайн бесплатно в хорошем качестве


    Вы не можете начинать темы
    Вы не можете отвечать на сообщения
    Вы не можете редактировать свои сообщения
    Вы не можете удалять свои сообщения
    Вы не можете голосовать в опросах
    Вы не можете прикреплять файлы к сообщениям
    Вы можете скачивать файлы