новый адрес
Мега распродажа FORZA HORIZON 4 ULTIMATE+ВСЕ DLC+ОНЛАЙН всего за 499р. 349 руб. (супер цена). Внимание количество ограничено!!!

iTunes

1+1

iTunes

мы

iTunes

1

iTunes

Чернобыль

iTunes

Ральф против интернета

Лицензия

ПШазам

Лицензия

Оно 2

Лицензия

30
pack

ВАЖНО

!!Акция!!

Alien_RageХит недели

RePack

Resident Evil 21

ИГРА 18+

pack

RePack

Metro:Exodus

!!Акция!!

Alien_Rage

RePack

fifa19

RePack

Assassins Creed: Odyssey

RePack

NEED FOR SPEED™ PAYBACK

3 сезон

9 сезон

Бесстыжие 9 сезон

Все сериалы

все сериалы на PB.wtf

RePack

FAR CRY 5
Ребята, катастрофически не хватает 1900р. для оплаты серверов за Октябрь (всвязи с блокировками трафик упал в 3 раза), 1-2р., выручайте.
  

Они похожи на людей / They Look Like People (Perry Blackshear) [2015, триллер, драма, детектив, WEB-DLRip, Любительский (многоголосый) pb.wtf

Они похожи на людей через торрент pb.wtf

Размер: 1.37 GB | Добавлен: 3 года 7 мес. назад | Торрент скачан:204 раза
Скачать  

15-04-2016 11:24 Они похожи на людей Скачать торрент  


Они похожи на людей / They Look Like People


ИНФОРМАЦИЯ:
Год выпуска:2015
Страна: США
Жанр: триллер, драма, детектив
Продолжительность: 00:22:57
Перевод: Любительский (многоголосый)
Режиссер: Perry Blackshear

В Ролях:


Маклеод Эндрюс (Wyatt), Ивэн Дюмошель (Christian), Маргарет Йинг Дрэйк (Mara), Мик Касале (Psychiatrist), Елена Гринли (Sandy)

Описание:
Подозревая, что люди вокруг него превращаются в злобных тварей, у главного героя возникают вопросы: "А люди ли они вообще и как защитить своего единственного друга от надвигающейся войны"?,... а может и от самого себя....

  • Мировая премьера:25 января 2015

    ТЕХ.ДАННЫЕ:
    Качество: WEB-DLRip
    Формат: AVI
    Видео: DivX 5, 720x304 (2.35:1), 2051 kbps, 23,976 fps, 0,391 bpp
    Аудио: MP3 / 2.0 / 48 kHz / 320 kbps /


    General
    Complete name : D:\Торент\Oni.Pohogi.na.Ludey.2015.MVO.WEB-DLRip.14OOMB_KOSHERA.avi
    Format : AVI
    Format/Info : Audio Video Interleave
    File size : 1.37 GiB
    Duration : 1h 19mn
    Overall bit rate : 2 478 Kbps
    Writing application : VirtualDubMod 1.5.10.2 (build 2540/release)
    Writing library : VirtualDubMod build 2540/release

    Video
    ID : 0
    Format : MPEG-4 Visual
    Format settings, BVOP : 2
    Format settings, QPel : No
    Format settings, GMC : No warppoints
    Format settings, Matrix : Default (H.263)
    Muxing mode : Packed bitstream
    Codec ID : DX50
    Codec ID/Hint : DivX 5
    Duration : 1h 19mn
    Bit rate : 2 051 Kbps
    Width : 720 pixels
    Height : 304 pixels
    Display aspect ratio : 2.35:1
    Frame rate : 23.976 fps
    Color space : YUV
    Chroma subsampling : 4:2:0
    Bit depth : 8 bits
    Scan type : Progressive
    Compression mode : Lossy
    Bits/(Pixel*Frame) : 0.391
    Stream size : 1.13 GiB (83%)
    Writing library : DivX 3013

    Audio
    ID : 1
    Format : MPEG Audio
    Format version : Version 1
    Format profile : Layer 3
    Codec ID : 55
    Codec ID/Hint : MP3
    Duration : 1h 19mn
    Bit rate mode : Constant
    Bit rate : 320 Kbps
    Channel(s) : 2 channels
    Sampling rate : 48.0 KHz
    Compression mode : Lossy
    Stream size : 181 MiB (13%)
    Alignment : Split accross interleaves
    Скриншоты:

    © Оформление by .::Ворон::.
    pb.wtf
    !Ворон писал(а):

    Присутствуют вставки голосовой и текстовой рекламы!



  • Скачать Они похожи на людей через торрент http://pic.kartinco.top/images/6/ordi9.jpg Скачать фильм Они похожи на людей через торрент бесплантно в хорошем качестве Описание: Подозревая, что люди вокруг него превращаются в злобных тварей, у главного героя возникают вопросы: "А люди ли они вообще и как ... 6.7 10 9
    Торрент: Зарегистрирован [2016-04-15 11:24] · скачан: 204 раз
    Статус: T временная
    Размер: 1.37 GB
    Как cкачать? Как скачать Они похожи на людей через торрент | qTorrent



    Последний раз редактировалось: Ворон (2016-04-15 12:10), всего редактировалось 1 раз


    >> Регистрируемся здесь <<






    Отзывы и комментарии о схеме читаем и пишем здесь: ---> Отзывы и комментарии о схеме

    Новые благодарочки в телеграм довольных пользователей:
    скриншот   скриншот   скриншот   скриншот   скриншот
      Дорогой пользователь! Огромная просьба, поблагодарите релизера, оцените раздачу и оставьте свои комментарий, если Вы скачали Они похожи на людей через торрент бесплатно! Внесите свою лепту в развитие PiratBit!
      Комментировать посты могут только пользователи прошедшие не сложную регистрацию
      Показать сообщения:    

      Они похожи на людей через торрент
      Скачать бесплатно Они похожи на людей
      Они похожи на людей скачать торрент
      Они похожи на людей смотреть онлайн
      Cкачать фильм Они похожи на людей бесплатно
      Они похожи на людей скачать торрент в хорошем качестве
      Они похожи на людей смотреть онлайн бесплатно в хорошем качестве


      Вы не можете начинать темы
      Вы не можете отвечать на сообщения
      Вы не можете редактировать свои сообщения
      Вы не можете удалять свои сообщения
      Вы не можете голосовать в опросах
      Вы не можете прикреплять файлы к сообщениям
      Вы можете скачивать файлы