Ссылка на приватное зеркало нашего сайта всего за 1$. Внимание количество ограничено!!!

2 сезон

iTunes

1 сезон

1

iTunes

iTunes

iTunes

1 сезон

RePack

30

ИГРА 18+

pack

ВАЖНО

!!Акция!!

Alien_RageХит недели

RePack

MK11
pack

Забери бонус

RePack

jed

!!Акция!!

Alien_Rage

RePack

fifa19

RePack

Assassins Creed: Odyssey

RePack

NEED FOR SPEED™ PAYBACK

4 сезон

9 сезон

Бесстыжие 9 сезон

Все сериалы

все сериалы на PB.wtf

RePack

FAR CRY 5
  

Эврика / Eureka (Николас Роуг) [1983, триллер, драма, BDRip 720p by msltel] MVO, DVO, AVO pb.wtf

Эврика через торрент pb.wtf

Размер: 6.32 GB | Добавлен: 4 года 6 мес. назад | Торрент скачан:28 раз
Скачать  

15-04-2016 12:58 Эврика Скачать торрент  

Название: Эврика
Оригинальное название: Eureka
Год выпуска: 1983
Страна: США, Великобритания
Жанр: триллер, драма
Продолжительность: 02:09:42
Перевод: профессиональный многоголосый, профессиональный двухголосый, авторский

Режиссёр: Николас Роуг

В ролях: Джин Хэкмен, Тереза Расселл, Рутгер Хауэр, Джейн Лапотэйр, Микки Рурк, Эд Лотер, Джо Пеши, Хелена Каллианиотес, Каван Кендалл, Корин Редгрейв, Джо Спинелл, Фрэнк Пеше, Майкл Скотт Эддис, Норман Битон, Эмрис Джеймс, Джеймс Фолкнер, Энн Торнтон, Эмма Релф, Джон Вайн, Тим Ван Реллим, Эллис Дейл, Ллойд Берри, Том Хитон, Тимоти Скотт, Джери Дьюсон, Энни Киддер, Иэн Трейси, Сандра Фризен, Раймонд Стамм, Сьюзетт Коллинз

Описание: 1925 год. Золотоискатель Джек МакКанн после ряда безуспешных попыток находит богатейшее месторождение. Проходит 20 лет, и мультимиллионер МакКанн ведёт жизнь отшельника в роскошном особняке на собственном острове в Карибском море. Ему трудно ладить со спившейся женой и дочерью, вышедшей замуж за француза-плейбоя. Вдобавок, к острову проявляет интерес игорная мафия...



Качество: BDRip 720p Сравнение с исходником
Формат: MKV
Видео: MPEG-4 AVC, 6202 Кбит/с, 1280x694, 23,976 кадра/с
Аудио 1: русский, AC3, 192 kbps, 2 ch, 48 kHz [профессиональный многоголосый]
Аудио 2: русский, AC3, 192 kbps, 2 ch, 48 kHz [профессиональный двухголосый, HTB+]
Аудио 3: русский, AC3, 192 kbps, 2 ch, 48 kHz [авторский, Пётр Карцев]
Аудио 4: английский, AC3, 192 kbps, 1 ch, 48 kHz [оригинал]
Субтитры: английские (для слабослышащих)
Общее
Уникальный идентификатор : 177252156806292085980745221500594033223 (0x8559860DEDEE0053ADBEBAE66FD41247)
Полное имя : D:\Video\Эврика.1983.BDRip.720p.mkv
Формат : Matroska
Версия формата : Version 4 / Version 2
Размер файла : 6,32 Гбайт
Продолжительность : 2 ч. 9 м.
Общий поток : 6972 Кбит/сек
Дата кодирования : UTC 2016-04-15 03:26:23
Программа кодирования : mkvmerge v8.2.0 ('World of Adventure') 64bit
Библиотека кодирования : libebml v1.3.1 + libmatroska v1.4.2

Видео
Идентификатор : 1
Формат : AVC
Формат/Информация : Advanced Video Codec
Профиль формата : High@L4.1
Параметр CABAC формата : Да
Параметр ReFrames формата : 9 кадров
Идентификатор кодека : V_MPEG4/ISO/AVC
Продолжительность : 2 ч. 9 м.
Битрейт : 6202 Кбит/сек
Ширина : 1280 пикселей
Высота : 694 пикселя
Соотношение сторон : 1,85:1
Режим частоты кадров : Постоянный
Частота кадров : 23,976 (24000/1001) кадра/сек
Цветовое пространство : YUV
Субдискретизация насыщенности : 4:2:0
Битовая глубина : 8 бит
Тип развёртки : Прогрессивная
Бит/(Пиксели*Кадры) : 0.291
Размер потока : 5,62 Гбайт (89%)
Библиотека кодирования : x264 core 146 r2538 121396c
Настройки программы : cabac=1 / ref=9 / deblock=1:-3:-3 / analyse=0x3:0x113 / me=umh / subme=10 / psy=1 / psy_rd=1.00:0.15 / mixed_ref=1 / me_range=32 / chroma_me=1 / trellis=2 / 8x8dct=1 / cqm=0 / deadzone=21,11 / fast_pskip=1 / chroma_qp_offset=-3 / threads=6 / lookahead_threads=1 / sliced_threads=0 / nr=0 / decimate=1 / interlaced=0 / bluray_compat=0 / constrained_intra=0 / bframes=11 / b_pyramid=2 / b_adapt=2 / b_bias=0 / direct=1 / weightb=1 / open_gop=0 / weightp=2 / keyint=230 / keyint_min=23 / scenecut=40 / intra_refresh=0 / rc_lookahead=40 / rc=crf / mbtree=0 / crf=21.0 / qcomp=0.60 / qpmin=0 / qpmax=69 / qpstep=4 / vbv_maxrate=40000 / vbv_bufsize=50000 / crf_max=0.0 / nal_hrd=none / filler=0 / ip_ratio=1.40 / pb_ratio=1.30 / aq=1:1.00
Язык : English
Default : Да
Forced : Нет

Аудио #1
Идентификатор : 2
Формат : AC-3
Формат/Информация : Audio Coding 3
Расширение режима : CM (complete main)
Параметр Endianness формата : Big
Идентификатор кодека : A_AC3
Продолжительность : 2 ч. 9 м.
Вид битрейта : Постоянный
Битрейт : 192 Кбит/сек
Каналы : 2 канала
Расположение каналов : Front: L R
Частота : 48,0 КГц
Частота кадров : 31,250 кадров/сек (1536 spf)
Метод сжатия : С потерями
Размер потока : 178 Мбайт (3%)
Заголовок : MVO
Язык : Russian
Default : Да
Forced : Нет

Аудио #2
Идентификатор : 3
Формат : AC-3
Формат/Информация : Audio Coding 3
Расширение режима : CM (complete main)
Параметр Endianness формата : Big
Идентификатор кодека : A_AC3
Продолжительность : 2 ч. 9 м.
Вид битрейта : Постоянный
Битрейт : 192 Кбит/сек
Каналы : 2 канала
Расположение каналов : Front: L R
Частота : 48,0 КГц
Частота кадров : 31,250 кадров/сек (1536 spf)
Метод сжатия : С потерями
Размер потока : 178 Мбайт (3%)
Заголовок : DVO (HTB+)
Язык : Russian
Default : Нет
Forced : Нет

Аудио #3
Идентификатор : 4
Формат : AC-3
Формат/Информация : Audio Coding 3
Расширение режима : CM (complete main)
Параметр Endianness формата : Big
Идентификатор кодека : A_AC3
Продолжительность : 2 ч. 9 м.
Вид битрейта : Постоянный
Битрейт : 192 Кбит/сек
Каналы : 2 канала
Расположение каналов : Front: L R
Частота : 48,0 КГц
Частота кадров : 31,250 кадров/сек (1536 spf)
Метод сжатия : С потерями
Размер потока : 178 Мбайт (3%)
Заголовок : AVO (Пётр Карцев)
Язык : Russian
Default : Нет
Forced : Нет

Аудио #4
Идентификатор : 5
Формат : AC-3
Формат/Информация : Audio Coding 3
Расширение режима : CM (complete main)
Параметр Endianness формата : Big
Идентификатор кодека : A_AC3
Продолжительность : 2 ч. 9 м.
Вид битрейта : Постоянный
Битрейт : 192 Кбит/сек
Каналы : 1 канал
Расположение каналов : Front: C
Частота : 48,0 КГц
Частота кадров : 31,250 кадров/сек (1536 spf)
Метод сжатия : С потерями
Размер потока : 178 Мбайт (3%)
Заголовок : Original
Язык : English
Default : Нет
Forced : Нет

Текст
Идентификатор : 6
Формат : UTF-8
Идентификатор кодека : S_TEXT/UTF8
Идентификатор кодека/Информация : UTF-8 Plain Text
Продолжительность : 2 ч. 3 м.
Битрейт : 42 бит/сек
Count of elements : 1386
Размер потока : 38,9 Кбайт (0%)
Заголовок : английский (для слабослышащих)
Язык : English
Default : Нет
Forced : Нет
pb.wtf



Скачать Эврика через торрент http://s013.radikal.ru/i322/1604/b5/80b7bff05ca7.jpg Скачать фильм Эврика через торрент бесплантно в хорошем качестве Описание: 1925 год. Золотоискатель Джек МакКанн после ряда безуспешных попыток находит богатейшее месторождение. Проходит 20 лет, и ... 10 10 3
Info! Золотая раздача, скачанное не засчитывается.
Торрент: Зарегистрирован [2016-04-15 12:58] · скачан: 28 раз
Статус: √ проверено
Размер: 6.32 GB
Как cкачать? Как скачать Эврика через торрент | qTorrent

% Раздел Тема Автор DL S | L
Фильмы [HD 720p, 1080p] (Хороший звук DUB, MVO) [ 15.14 GB ] Эврика / Eureka [1983 BDRip 1080p by msltel] MVO DVO AVO msltel Скачать
1 | 0

28-11-2019 20:33  

Отключить всю рекламу на сайте

    Дорогой пользователь! Огромная просьба, поблагодарите релизера, оцените раздачу и оставьте свои комментарий, если Вы скачали Эврика через торрент бесплатно! Внесите свою лепту в развитие PiratBit!
    Комментировать посты могут только пользователи прошедшие не сложную регистрацию
    Показать сообщения:    

    Эврика через торрент
    Скачать бесплатно Эврика
    Эврика скачать торрент
    Эврика смотреть онлайн
    Cкачать фильм Эврика бесплатно
    Эврика скачать торрент в хорошем качестве
    Эврика смотреть онлайн бесплатно в хорошем качестве


    Вы не можете начинать темы
    Вы не можете отвечать на сообщения
    Вы не можете редактировать свои сообщения
    Вы не можете удалять свои сообщения
    Вы не можете голосовать в опросах
    Вы не можете прикреплять файлы к сообщениям
    Вы можете скачивать файлы