Ссылка на приватное зеркало нашего сайта всего за 1$. Внимание количество ограничено!!!

2 сезон

iTunes

1 сезон

1

iTunes

iTunes

iTunes

1 сезон

RePack

30

ИГРА 18+

pack

ВАЖНО

!!Акция!!

Alien_RageХит недели

RePack

MK11
pack

Забери бонус

RePack

jed

!!Акция!!

Alien_Rage

RePack

fifa19

RePack

Assassins Creed: Odyssey

RePack

NEED FOR SPEED™ PAYBACK

4 сезон

9 сезон

Бесстыжие 9 сезон

Все сериалы

все сериалы на PB.wtf

RePack

FAR CRY 5
  

Парасомния / Parasomnia (Уильям Мэлоун) [2008 г., Ужасы, триллер, мелодрама, BDRip 720p] Профессиональный (многоголосый) pb.wtf

Парасомния через торрент pb.wtf

Размер: 4.5 GB | Добавлен: 4 года 6 мес. назад | Торрент скачан:79 раз
Скачать  

15-04-2016 13:29 Парасомния Скачать торрент  

Парасомния / Parasomnia Год выпуска: 2008
Страна: США
Жанр: Ужасы, триллер, мелодрама
Продолжительность: 01:39:47
Перевод:Профессиональный (многоголосый)
Субтитры: Отсутствуют

Режиссер: Уильям Мэлоун
Продюссер: Элизабет Эрнхарт, Вероника Харт, Джон Джанотта
Сценарий: Уильям Мэлоун

Премьера в мире: 17 октября 2008

лицам до 17 лет обязательно присутствие взрослого



В ролях: Дилан Пурселл, Патрик Килпатрик, Джеффри Комбс, Шерилин Уилсон, Тимоти Боттомс, Кэтрин Ли Скотт, Бреннан Мандт, Дов Тифенбах, Элисон Бри, Мэдисон Девенпорт, Сара Лэйн

Описание: Главная героиня — молодая девушка по имени Лора Бакстер, которая в детстве стала жертвой несчастного случая. Это послужило причиной того, что она впала в длительную спячку, лишь изредка просыпаясь. В госпиталь, в котором находится девушка, помещен жестокий маньяк-убийца Байрон Волп. И у него есть свои планы насчет спящей Лауры. Только бойфренд девушки студент Дэнни, искренне любящий ее, сможет помочь своей возлюбленной.

Качество: BDRip 720p
Формат: MKV
Видео кодек: MPEG-4 AVC
Аудио кодек: AC3
Видео: MPEG-4 AVC, 5812 Кбит/с, 1280x720, 25.000 fps
Аудио#1: Русский (AC3, 2 ch, 192 Кбит/с), 48.0 KHz
Аудио#2: Английский (AC3, 6 ch, 448 Кбит/с), 48.0 KHz
скриншот  скриншот  скриншот  





General
Unique ID : 210840214194474617095225236566096256243 (0x9E9E59239F8512FF99BA85ECC0549CF3)
Complete name : F:\Parasomnia.2008.720p.mkv
Format : Matroska
Format version : Version 2
File size : 4.50 GiB
Duration : 1h 39mn
Overall bit rate : 6 456 Kbps
Encoded date : UTC 2011-01-30 20:45:37
Writing application : mkvmerge v3.3.0 ('Language') built on Mar 24 2010 14:59:24
Writing library : libebml v0.8.0 + libmatroska v0.9.0

Video
ID : 1
Format : AVC
Format/Info : Advanced Video Codec
Format profile : High@L4.1
Format settings, CABAC : Yes
Format settings, ReFrames : 8 frames
Codec ID : V_MPEG4/ISO/AVC
Duration : 1h 39mn
Bit rate : 5 812 Kbps
Width : 1 280 pixels
Height : 720 pixels
Display aspect ratio : 16:9
Frame rate mode : Constant
Frame rate : 25.000 fps
Color space : YUV
Chroma subsampling : 4:2:0
Bit depth : 8 bits
Scan type : Progressive
Bits/(Pixel*Frame) : 0.252
Stream size : 3.96 GiB (88%)
Title : Parasomnia.2008.BluRay.720P.AC3.x264-CHD
Writing library : x264 core 88 r1471 1144615
Encoding settings : cabac=1 / ref=8 / deblock=1:-3:-3 / analyse=0x3:0x113 / me=umh / subme=9 / psy=1 / psy_rd=1.00:0.10 / mixed_ref=1 / me_range=32 / chroma_me=1 / trellis=2 / 8x8dct=1 / cqm=2 / deadzone=21,11 / fast_pskip=0 / chroma_qp_offset=-2 / threads=6 / sliced_threads=0 / nr=0 / decimate=1 / mbaff=0 / constrained_intra=0 / bframes=3 / b_pyramid=2 / b_adapt=2 / b_bias=0 / direct=3 / wpredb=1 / wpredp=2 / keyint=250 / keyint_min=25 / scenecut=40 / intra_refresh=0 / rc_lookahead=60 / rc=2pass / mbtree=1 / bitrate=5812 / ratetol=1.0 / qcomp=0.60 / qpmin=10 / qpmax=51 / qpstep=4 / cplxblur=20.0 / qblur=0.5 / vbv_maxrate=50000 / vbv_bufsize=50000 / ip_ratio=1.40 / aq=1:0.60
Language : English
Default : Yes
Forced : No

Audio #1
ID : 2
Format : AC-3
Format/Info : Audio Coding 3
Mode extension : CM (complete main)
Format settings, Endianness : Big
Codec ID : A_AC3
Duration : 1h 39mn
Bit rate mode : Constant
Bit rate : 192 Kbps
Channel(s) : 2 channels
Channel positions : Front: L R
Sampling rate : 48.0 KHz
Frame rate : 31.250 fps (1536 spf)
Compression mode : Lossy
Stream size : 137 MiB (3%)
Title : MVO R5 AC3 2.0 192
Language : Russian
Default : Yes
Forced : No

Audio #2
ID : 3
Format : AC-3
Format/Info : Audio Coding 3
Mode extension : CM (complete main)
Format settings, Endianness : Big
Codec ID : A_AC3
Duration : 1h 39mn
Bit rate mode : Constant
Bit rate : 448 Kbps
Channel(s) : 6 channels
Channel positions : Front: L C R, Side: L R, LFE
Sampling rate : 48.0 KHz
Frame rate : 31.250 fps (1536 spf)
Compression mode : Lossy
Stream size : 320 MiB (7%)
Title : English AC3 5.1 448Kbps
Language : English
Default : No
Forced : No

pb.wtf



Скачать Парасомния через торрент http://pic.kartinco.top/images/11/iinlb.jpg Скачать фильм Парасомния через торрент бесплантно в хорошем качестве Описание: Главная героиня — молодая девушка по имени Лора Бакстер, которая в детстве стала жертвой несчастного случая. Это послужило ... 10 10 7
Торрент: Зарегистрирован [2016-04-15 13:29] · скачан: 79 раз
Статус: √ проверено
Размер: 4.5 GB
Как cкачать? Как скачать Парасомния через торрент | qTorrent

28-11-2019 20:33  

Отключить всю рекламу на сайте

15-04-2016 15:26 Парасомния Скачать торрент  

Хороший фильм .смотрела давно.еще можно посмотреть pb.wtf



18-04-2016 06:30 Парасомния Скачать торрент  

Фильм лажа полная давно смотрел.pb.wtf



11-08-2016 13:57 Парасомния Скачать торрент  

AmanDA07 писал(а):

Хороший фильм .смотрела давно.еще можно посмотреть

bober100 писал(а):

Фильм лажа полная давно смотрел.

Кому верить?)pb.wtf



    Дорогой пользователь! Огромная просьба, поблагодарите релизера, оцените раздачу и оставьте свои комментарий, если Вы скачали Парасомния через торрент бесплатно! Внесите свою лепту в развитие PiratBit!
    Комментировать посты могут только пользователи прошедшие не сложную регистрацию
    Показать сообщения:    

    Парасомния через торрент
    Скачать бесплатно Парасомния
    Парасомния скачать торрент
    Парасомния смотреть онлайн
    Cкачать фильм Парасомния бесплатно
    Парасомния скачать торрент в хорошем качестве
    Парасомния смотреть онлайн бесплатно в хорошем качестве


    Вы не можете начинать темы
    Вы не можете отвечать на сообщения
    Вы не можете редактировать свои сообщения
    Вы не можете удалять свои сообщения
    Вы не можете голосовать в опросах
    Вы не можете прикреплять файлы к сообщениям
    Вы можете скачивать файлы