Ссылка на приватное зеркало нашего сайта всего за 1$. Внимание количество ограничено!!!

2 сезон

iTunes

1 сезон

1

2 сезон

2 сезон

iTunes

1 сезон

RePack

30

Новинка

ВАЖНО

ИГРА 18+

pack

RePack

MK11
pack

Забери бонус

RePack

jed

!!Акция!!

Alien_Rage

RePack

fifa19

RePack

Assassins Creed: Odyssey

RePack

NEED FOR SPEED™ PAYBACK

4 сезон

9 сезон

Бесстыжие 9 сезон

Все сериалы

все сериалы на PB.wtf

RePack

FAR CRY 5
  

12 Обезьян / 12 Monkeys / Сезон: 2 / Серии 13 из 13 (Дэвид Гроссман, Майкл Ваксман, Джон Бэдэм) [2016 г., Фантастика, триллер, драма, детектив, приключения, WEB-DLRip, MVO (LostFilm)] pb.wtf

12 Обезьян через торрент pb.wtf

Размер: 4.3 GB | Добавлен: 4 года 4 мес. назад | Торрент скачан:77 раз
Скачать  

17-04-2016 19:07 12 Обезьян Скачать торрент  

12 Обезьян / 12 Monkeys
Год выпуска: 2016
Страна: США
Жанр: Фантастика, триллер, драма, детектив, приключения
Продолжительность: ~ 00:44:00
Перевод: Профессиональный (многоголосый, закадровый)

Режиссер: Дэвид Гроссман, Майкл Ваксман, Джон Бэдэм



В ролях: Аарон Стэнфорд, Аманда Шулл, Кирк Асеведо, Ной Бин, Демор Барнс, Рамон Де Окампо, Бенджамин Меранда, Алисен Даун, Барбара Зукова, Эмили Хэмпши

Описание: Новый фантастический сериал, созданный по мотивам оригинального фильма 1995 года. Коул является уголовником из постапокалиптического будущего. Его осудили за дерзкое поведение и неподчинение властям. В конце девяностых некий вирус уничтожил почти всю популяцию людей, а те, кому удалось выжить, укрылись под землей. В то время ученые уже изобрели технологию путешествия во времени, и Коул стал «морской свинкой», на которой эту технологию решили испытать. Он должен добыть для изучения образцы вируса из прошлого и за это получит полное прощение за все содеянное.


Качество: WEB-DLRip
Формат: AVI
Видео кодек: XviD
Аудио кодек: MP3
Видео: 720x400 (1.76:1), 23.976 fps, XviD ~1128 kbps
Аудио#1: mp3,2 ch,192 kbps, 48.0 KHz





General
Complete name : D:\Загрузка\Torrent\S02E01.Год Обезьяны.avi
Format : AVI
Format/Info : Audio Video Interleave
File size : 419 MiB
Duration : 44mn 1s
Overall bit rate mode : Variable
Overall bit rate : 1 329 Kbps
Writing application : Nandub v1.0rc2
Writing library : Nandub build 1853/release

Video
ID : 0
Format : MPEG-4 Visual
Format profile : Advanced Simple@L5
Format settings, BVOP : No
Format settings, QPel : No
Format settings, GMC : No warppoints
Format settings, Matrix : Default (H.263)
Codec ID : XVID
Codec ID/Hint : XviD
Duration : 44mn 1s
Bit rate : 1 128 Kbps
Width : 720 pixels
Height : 400 pixels
Display aspect ratio : 16:9
Frame rate : 23.976 (23976/1000) fps
Color space : YUV
Chroma subsampling : 4:2:0
Bit depth : 8 bits
Scan type : Progressive
Compression mode : Lossy
Bits/(Pixel*Frame) : 0.163
Stream size : 355 MiB (85%)
Writing library : XviD 1.2.1 (UTC 2008-12-04)

Audio
ID : 1
Format : MPEG Audio
Format version : Version 1
Format profile : Layer 3
Mode : Joint stereo
Mode extension : MS Stereo
Codec ID : 55
Codec ID/Hint : MP3
Duration : 44mn 1s
Bit rate mode : Variable
Bit rate : 192 Kbps
Channel(s) : 2 channels
Sampling rate : 48.0 KHz
Compression mode : Lossy
Stream size : 59.3 MiB (14%)
Alignment : Aligned on interleaves
Interleave, duration : 24 ms (0.58 video frame)
Interleave, preload duratio : 481 ms
Writing library : LAME3.97b
Encoding settings : -m j -V 4 -q 3 -lowpass 18.6 --abr 192

  • Остановить скачивание
  • Удалить старый торрент у себя из клиента (старые серии удалять не надо)
  • Скачать новый торрент и запустить его у себя в клиенте вместо старого, при этом указать клиенту путь в старую папку куда и должно происходить скачивание новых серий.

    Ваш клиент при этом должен произвести хеширование (проверку) старой папки (если не производит сам - помогите ему сделать это), и будет докачивать только те серии которых у вас ещё нет. Старые серии при этом не удаляются, а продолжают раздаваться!

    Eсли вы уже удалили старые серии, то предотвратить повторную закачку старых серий можно, отжав галочку в соответсвующих местах при запуске нового торрента. По возможности, желательно не удалять старые серии как можно дольше чтобы релизёр не столько продолжал раздавать старые серии, а смог сконцентрироваться на новых.
  • Оформление:Alex_EДобавлена 13 серия (21.07.2016)Просьба перекачать торрентСериал официально продлен на 3 сезон pb.wtf



    Скачать 12 Обезьян через торрент http://pic1.kartinco.top/images/10/48bue.jpg Скачать фильм 12 Обезьян через торрент бесплантно в хорошем качестве Описание: Новый фантастический сериал, созданный по мотивам оригинального фильма 1995 года. Коул является уголовником из ... 9.1 10 13
    Info! Золотая раздача, скачанное не засчитывается.
    Торрент: Зарегистрирован [2016-07-21 07:27] · скачан: 77 раз
    Статус: √ проверено
    Размер: 4.3 GB
    Как cкачать? Как скачать 12 Обезьян через торрент | qTorrent

    % Раздел Тема Автор DL S | L
    Зарубежные сериалы [ 22.55 GB ] 12 обезьян / 12 Monkeys / Сезон: 2 / Серии 1-13 из 13 [2016 WEB-DL 1080р] MVO [BaibaKo] GEKADOL Скачать
    1 | 0
    Зарубежные сериалы [ 817 MB ] 12 Обезьян / 12 Monkeys / Сезон: 3 / Серии 2 из 13 [2017 WEB-DLRip MVO ] Alex_E Скачать
    1 | 0
    Зарубежные сериалы [ 11.17 GB ] 12 обезьян / 12 Monkeys / Сезон: 2 / Серии 1-13 из 13 [2016 WEB-DLRip-AVC] MVO [BaibaKo] GEKADOL Скачать
    1 | 0


    Последний раз редактировалось: Alex_E (2016-07-21 07:27), всего редактировалось 3 раз(а)

    28-11-2019 20:33  

    Отключить всю рекламу на сайте

    23-05-2016 18:45 12 Обезьян Скачать торрент  

    очень спасибо!pb.wtf



      Дорогой пользователь! Огромная просьба, поблагодарите релизера, оцените раздачу и оставьте свои комментарий, если Вы скачали 12 Обезьян через торрент бесплатно! Внесите свою лепту в развитие PiratBit!
      Комментировать посты могут только пользователи прошедшие не сложную регистрацию
      Показать сообщения:    

      12 Обезьян через торрент
      Скачать бесплатно 12 Обезьян
      12 Обезьян скачать торрент
      12 Обезьян смотреть онлайн
      Cкачать фильм 12 Обезьян бесплатно
      12 Обезьян скачать торрент в хорошем качестве
      12 Обезьян смотреть онлайн бесплатно в хорошем качестве


      Вы не можете начинать темы
      Вы не можете отвечать на сообщения
      Вы не можете редактировать свои сообщения
      Вы не можете удалять свои сообщения
      Вы не можете голосовать в опросах
      Вы не можете прикреплять файлы к сообщениям
      Вы можете скачивать файлы