Ссылка на приватное зеркало нашего сайта всего за 1$. Внимание количество ограничено!!!

2 сезон

iTunes

1 сезон

1

2 сезон

2 сезон

iTunes

1 сезон

RePack

30

Ultimate

ВАЖНО

ИГРА 18+

pack

RePack

MK11
pack

Забери бонус

RePack

jed

!!Акция!!

Alien_Rage

RePack

fifa19

RePack

Assassins Creed: Odyssey

RePack

NEED FOR SPEED™ PAYBACK

4 сезон

9 сезон

Бесстыжие 9 сезон

Все сериалы

все сериалы на PB.wtf

RePack

FAR CRY 5
  

Штат Блу Маунтин: Восстание Тадлэнда / Blue Mountain State: The Rise of Thadland (Лев Л. Спиро) [2016, комедия, спорт, WEB-DL 1080p] (Arkadiy) pb.wtf

Штат Блу Маунтин: Восстание Тадлэнда через торрент pb.wtf

Размер: 2.94 GB | Добавлен: 4 года 7 мес. назад | Торрент скачан:138 раз
Скачать  

18-04-2016 01:10 Штат Блу Маунтин: Восстание Тадлэнда Скачать торрент  

Штат Блу Маунтин: Восстание Тадлэнда / Blue Mountain State: The Rise of Thadland
Информация о фильме
Название: Штат Блу Маунтин: Восстание Тадлэнда
Оригинальное название: Blue Mountain State: The Rise of Thadland
Год выхода: 2016
Жанр: комедия, спорт
Выпущено: США / AllyCat Entertainment, BMS Brands, Dead Fish Films, Falconer / Romanski
Длительность: 01:30:10
Озвучивание: Любительский одноголосый (Arkadiy)
Текст читали: (Arkadiy)
Режиссёр: Лев Л. Спиро
Субтитры: Русские форсированные
Описание: За несколько недель до начала учебного года BMS возглавляет новый декан. Новый человек – новые правила. И первым в его расстрельном списке значится Козлятник. Сохранить легендарный дом разврата и беззакония под силу лишь одному человеку на земле – Тэду Каслу. Но есть одно условие: спасение Козлятника взамен на грандиозную и безумную вечеринку, которую когда-либо видели стены BMS. Алексу и остальным футболистам придется серьезно потрудиться, чтобы удовлетворить запросы эксцентричной звезды НФЛ…
Качество: WEB-DL 1080p
Формат: MKV
Видео: MPEG-4 AVC, 1912x808, 4347 kbps, 23.976 fps
Аудио: AC3, 48 kHz, 2/0 (L,R) ch, ~224 kbps
Общее
Формат : Matroska
Версия формата : Version 2
Размер файла : 2,94 Гбайт
Продолжительность : 1 ч. 30 м.
Общий поток : 4664 Кбит/сек
Название фильма : Blue.Mountain.State.The.Rise.of.Thadland.2016.1080p.WEB-DL.2.0.Arkadiy
Дата кодирования : UTC 2016-04-17 13:55:22
Программа кодирования : mkvmerge v4.0.0 ('The Stars were mine') сборка от Jun 6 2010 16:18:42
Библиотека кодирования : libebml v1.0.0 + libmatroska v1.0.0
Обложка : Yes
Attachments : small_cover.jpg / small_cover_land.jpg / cover.jpg / cover_land.jpg

Видео
Идентификатор : 1
Формат : AVC
Формат/Информация : Advanced Video Codec
Профиль формата : High@L4
Параметр CABAC формата : Да
Параметр ReFrames формата : 5 кадров
Идентификатор кодека : V_MPEG4/ISO/AVC
Продолжительность : 1 ч. 30 м.
Битрейт : 4347 Кбит/сек
Ширина : 1912 пикселей
Высота : 808 пикселей
Соотношение сторон : 2,35:1
Режим частоты кадров : Постоянный
Частота кадров : 23,976 (24000/1001) кадра/сек
Цветовое пространство : YUV
Субдискретизация насыщенности : 4:2:0
Битовая глубина : 8 бит
Тип развёртки : Прогрессивная
Бит/(Пиксели*Кадры) : 0.117
Размер потока : 2,74 Гбайт (93%)
Заголовок : Blue.Mountain.State.The.Rise.of.Thadland.2016.1080p.WEB-DL
Язык : Russian
Default : Нет
Forced : Нет
Цветовой диапазон : Limited
Основные цвета : BT.709
Характеристики трансфера : BT.709
Коэффициенты матрицы : BT.709

Аудио
Идентификатор : 2
Формат : AC-3
Формат/Информация : Audio Coding 3
Расширение режима : CM (complete main)
Параметр Endianness формата : Big
Идентификатор кодека : A_AC3
Продолжительность : 1 ч. 30 м.
Вид битрейта : Постоянный
Битрейт : 224 Кбит/сек
Каналы : 2 канала
Расположение каналов : Front: L R
Частота : 48,0 КГц
Частота кадров : 31,250 кадров/сек (1536 spf)
Метод сжатия : С потерями
Размер потока : 144 Мбайт (5%)
Заголовок : AC3.2.0.Arkadiy.RUS
Язык : Russian
Default : Да
Forced : Нет

Текст
Идентификатор : 3
Формат : UTF-8
Идентификатор кодека : S_TEXT/UTF8
Идентификатор кодека/Информация : UTF-8 Plain Text
Заголовок : Форсированные
Язык : Russian
Default : Да
Forced : Нет
скриншот   скриншот   скриншот   скриншот   скриншот   скриншот  
http://multi-up.com/1098009
pb.wtf



Скачать Штат Блу Маунтин: Восстание Тадлэнда через торрент http://pic.kartinco.top/images/11/9kns1.jpg Скачать фильм Штат Блу Маунтин: Восстание Тадлэнда через торрент бесплантно в хорошем качестве Описание: За несколько недель до начала учебного года BMS возглавляет новый декан. Новый человек – новые правила. И первым в его ... 4.9 10 7
Info! Золотая раздача, скачанное не засчитывается.
Торрент: Зарегистрирован [2016-04-18 01:10] · скачан: 138 раз
Статус: T временная
Размер: 2.94 GB
Как cкачать? Как скачать Штат Блу Маунтин: Восстание Тадлэнда через торрент | qTorrent

% Раздел Тема Автор DL S | L
T Фильмы 2016 (Звук TS, Cam, VO, DVO) [ 1.46 GB ] Штат Блу Маунтин: Восстание Тадлэнда / Blue Mountain State: The Rise of Thadland [2016 WEB-DLRip] VO Ворон Скачать
1 | 0
T Фильмы (WEB-DL 720p, 1080p) [ 3.16 GB ] Штат Блу Маунтин: Восстание Тадлэнда / Blue Mountain State: The Rise of Thadland [2016 WEB-DL 1080p] DVO Ворон Скачать
1 | 0
T Фильмы 2016 (Звук TS, Cam, VO, DVO) [ 1.45 GB ] Штат Блу Маунтин: Восстание Тадлэнда / Blue Mountain State: The Rise of Thadland [2016 WEB-DLRip] DVO Ворон Скачать
1 | 0

28-11-2019 20:33  

Отключить всю рекламу на сайте

18-04-2016 01:48 Штат Блу Маунтин: Восстание Тадлэнда Скачать торрент  

Блин... думал новый сезон вышел...
Спасибо!pb.wtf



18-04-2016 03:24 Штат Блу Маунтин: Восстание Тадлэнда Скачать торрент  

NDDLQ писал(а):

Блин... думал новый сезон вышел...
Спасибо!

как писали на форумах,что будущий сезон будет зависить от успеха фильма.ждемс пока решат успешен он был или неpb.wtf



18-04-2016 18:59 Штат Блу Маунтин: Восстание Тадлэнда Скачать торрент  

Сериал лучше.pb.wtf



    Дорогой пользователь! Огромная просьба, поблагодарите релизера, оцените раздачу и оставьте свои комментарий, если Вы скачали Штат Блу Маунтин: Восстание Тадлэнда через торрент бесплатно! Внесите свою лепту в развитие PiratBit!
    Комментировать посты могут только пользователи прошедшие не сложную регистрацию
    Показать сообщения:    

    Штат Блу Маунтин: Восстание Тадлэнда через торрент
    Скачать бесплатно Штат Блу Маунтин: Восстание Тадлэнда
    Штат Блу Маунтин: Восстание Тадлэнда скачать торрент
    Штат Блу Маунтин: Восстание Тадлэнда смотреть онлайн
    Cкачать фильм Штат Блу Маунтин: Восстание Тадлэнда бесплатно
    Штат Блу Маунтин: Восстание Тадлэнда скачать торрент в хорошем качестве
    Штат Блу Маунтин: Восстание Тадлэнда смотреть онлайн бесплатно в хорошем качестве


    Вы не можете начинать темы
    Вы не можете отвечать на сообщения
    Вы не можете редактировать свои сообщения
    Вы не можете удалять свои сообщения
    Вы не можете голосовать в опросах
    Вы не можете прикреплять файлы к сообщениям
    Вы можете скачивать файлы