Присоединяйтесь к нам в Telegram!, здесь всегда актуальный адрес сайта, оперативная поддержка и многое другое!!

>

5.9

iTunes

7.4

iTunes

9.4

1 сезон

1

7.4

2 сезон

7.2

iTunes

7.3

1 сезон

13

6.1

iTunes

8.3

GOG

30

ULTIMATE

pack

9.9

Лицензия

ВАЖНО

ИГРА 18+

pack

7.3

RePack

MK11

7.7

RePack

jed

7.8

RePack

fifa19

8.5

RePack

RDR2

RePack

NEED FOR SPEED™ PAYBACK

5 сезон

9 сезон

Бесстыжие 9 сезон

Все сериалы

все сериалы на PB.wtf

RePack

FAR CRY 5

Anonymous, доброй ночи, мы катастрофически не успеваем собрать деньги на оплату серверов, помогите нам пожалуйста 5,10,15р., для нас важна любая помощь . В качестве благодарности мы отключим Вам всю рекламу на сайте (укажите свой ник в строку Ваше имя)!

×
  
Magnet ссылка

Dan Balan - Funny Love [2015 г., Pop, Dance, WEB-DL 1080p] pb.wtf

Dan Balan - Funny Love через торрент pb.wtf

Размер: 549 MB | Добавлен: 5 лет 7 мес. назад | Торрент скачан:39 раз
Смотреть онлайн Dan Balan - Funny Love | Скачать    Ребята, помогите собрать деньги на оплату серверов!!!

18-04-2016 14:29 Dan Balan - Funny Love Скачать торрент  

Dan Balan - Funny Love
Год выпуска: 2015
Жанр: Pop, Dance
Продолжительность: 00:03:39

Качество: WEB-DL 1080p
Формат: MKV
Видео кодек: AVC
Аудио кодек: AC3
Видео: MPEG4 AVC, 1920x1080, 60,000 fps, 21,0 Mb/s
Аудио#1: AC-3 44,1 kHz, 2 ch, 192 kbps




Общее
Уникальный идентификатор : 200591506712566254588384891602436790744 (0x96E884D909EB512E9746E8369AB699D8)
Полное имя : E:\Upload\Dan Balan - Funny Love\Dan Balan - Funny Love.mkv
Формат : Matroska
Версия формата : Version 4 / Version 2
Размер файла : 549 Мбайт
Продолжительность : 3 м. 39 с.
Общий поток : 21,0 Мбит/сек
Дата кодирования : UTC 2016-04-10 16:15:51
Программа кодирования : mkvmerge v8.3.0 ('Over the Horizon') 64bit
Библиотека кодирования : libebml v1.3.1 + libmatroska v1.4.2
DURATION : 00:03:39.603000000
NUMBER_OF_FRAMES : 6305
NUMBER_OF_BYTES : 5270464
_STATISTICS_WRITING_APP : mkvmerge v8.3.0 ('Over the Horizon') 64bit
_STATISTICS_WRITING_DATE_UTC : 2016-04-10 16:15:51
_STATISTICS_TAGS : BPS DURATION NUMBER_OF_FRAMES NUMBER_OF_BYTES

Видео
Идентификатор : 1
Формат : AVC
Формат/Информация : Advanced Video Codec
Профиль формата : High@L4.1
Параметр CABAC формата : Да
Параметр ReFrames формата : 4 кадра
Идентификатор кодека : V_MPEG4/ISO/AVC
Продолжительность : 3 м. 39 с.
Битрейт : 21,0 Мбит/сек
Ширина : 1920 пикселей
Высота : 1080 пикселей
Соотношение сторон : 16:9
Режим частоты кадров : Постоянный
Частота кадров : 60,000 кадров/сек
Цветовое пространство : YUV
Субдискретизация насыщенности : 4:2:0
Битовая глубина : 8 бит
Тип развёртки : Прогрессивная
Бит/(Пиксели*Кадры) : 0.169
Размер потока : 533 Мбайт (97%)
Библиотека кодирования : x264 core 148 r2638 7599210
Настройки программы : cabac=1 / ref=3 / deblock=1:-1:-1 / analyse=0x3:0x113 / me=umh / subme=11 / psy=1 / psy_rd=1.00:0.00 / mixed_ref=1 / me_range=32 / chroma_me=1 / trellis=2 / 8x8dct=1 / cqm=0 / deadzone=21,11 / fast_pskip=1 / chroma_qp_offset=-4 / threads=3 / lookahead_threads=1 / sliced_threads=0 / nr=0 / decimate=1 / interlaced=0 / bluray_compat=0 / constrained_intra=0 / bframes=4 / b_pyramid=2 / b_adapt=2 / b_bias=0 / direct=1 / weightb=1 / open_gop=0 / weightp=2 / keyint=600 / keyint_min=60 / scenecut=40 / intra_refresh=0 / rc_lookahead=40 / rc=2pass / mbtree=1 / bitrate=21000 / ratetol=1.0 / qcomp=0.60 / qpmin=10 / qpmax=69 / qpstep=4 / cplxblur=20.0 / qblur=0.5 / vbv_maxrate=50000 / vbv_bufsize=62500 / nal_hrd=none / filler=0 / ip_ratio=1.40 / aq=1:1.00
Язык : English
Default : Да
Forced : Нет

Аудио
Идентификатор : 2
Формат : AC-3
Формат/Информация : Audio Coding 3
Профиль формата : Dolby Digital
Расширение режима : CM (complete main)
Параметр Endianness формата : Big
Идентификатор кодека : A_AC3
Продолжительность : 3 м. 39 с.
Вид битрейта : Постоянный
Битрейт : 192 Кбит/сек
Каналы : 2 канала
Расположение каналов : Front: L R
Частота : 44,1 КГц
Метод сжатия : С потерями
Размер потока : 5,03 Мбайт (1%)
Язык : English
Default : Да
Forced : Нет

Dan Balan - Funny Love скачать торрент

pb.wtf



Скачать Dan Balan - Funny Love через торрент http://i77.fastpic.ru/big/2016/0418/ed/527e525fe59f782b15a91d3dd86112ed.jpg Скачать, смотреть онлайн Dan Balan - Funny Love [2015 г., Pop, Dance, WEB-DL 1080p] бесплантно в хорошем качестве Год выпуска: 2015Жанр: Pop, DanceПродолжительность: ... 7.8 10 4
Торрент: Зарегистрирован [2016-04-18 14:29] · скачан: 39 раз
Статус: √ проверено
Размер: 549 MB
Как cкачать? Как скачать Dan Balan - Funny Love через торрент | UTorrent

28-11-2019 20:33  

Отключить всю рекламу на сайте

    Дорогой пользователь! Огромная просьба, поблагодарите релизера, оцените раздачу и оставьте свои комментарий, если Вы скачали Dan Balan - Funny Love через торрент бесплатно!
    Комментировать посты могут только пользователи прошедшие не сложную регистрацию
    Показать сообщения:    

    Dan Balan - Funny Love через торрент
    Скачать бесплатно Dan Balan - Funny Love
    Dan Balan - Funny Love скачать торрент
    Dan Balan - Funny Love смотреть онлайн
    Cкачать фильм Dan Balan - Funny Love бесплатно
    Dan Balan - Funny Love скачать торрент в хорошем качестве
    Dan Balan - Funny Love смотреть онлайн бесплатно в хорошем качестве


    Вы не можете начинать темы
    Вы не можете отвечать на сообщения
    Вы не можете редактировать свои сообщения
    Вы не можете удалять свои сообщения
    Вы не можете голосовать в опросах
    Вы не можете прикреплять файлы к сообщениям
    Вы можете скачивать файлы