2 сезон

iTunes

MVO

1

2 сезон

iTunes

iTunes

1 сезон

RePack

30

Новинка

ВАЖНО

ИГРА 18+

pack

RePack

MK11
pack

Легкие деньги

RePack

jed

RePack

fifa19

RePack

RDR2

RePack

NEED FOR SPEED™ PAYBACK

4 сезон

9 сезон

Бесстыжие 9 сезон

Все сериалы

все сериалы на PB.wtf

RePack

FAR CRY 5

Anonymous, доброй ночи, мы не успеваем собрать деньги на оплату серверов за декабрь и январь, помогите нам пожалуйста в это трудное время. В качестве благодарности мы отключим Вам всю рекламу на сайте (укажите свой ник в строку Ваше имя)!

×
  
Magnet ссылка

Лунные скитальцы (Телеканал "Россия-Культура") [2016 г., Документальный, история, космос, SATRip, Оригинальный] pb.wtf

Лунные скитальцы через торрент pb.wtf

Размер: 512 MB | Добавлен: 4 года 9 мес. назад | Торрент скачан:64 раза
Скачать  

18-04-2016 15:09 Лунные скитальцы Скачать торрент  

Лунные скитальцы
Год выпуска: 2016
Страна: Россия
Жанр: Документальный, история, космос
Продолжительность: 00:39:16
Перевод: Оригинальный
Субтитры: нет

Режиссер: Телеканал "Россия-Культура"

Описание: 17 ноября 1970 года космический аппарат "Луна-17" доставил "Луноход-1" в Море Дождей. На следующий день водитель Вячеслав Довгань, поздравляя супругу с днем рождения, написал в телеграмме: "Дорогая Светлана, дарю тебе свой первый след на Луне". Впрочем, два последних слова из соображений секретности пришлось вычеркнуть. Имена земных экипажей луноходов не назывались в печати до 1993 года. В 1970 году в газете "Правда" была опубликована статья, посвященная достижениям советской космонавтики, и в ней об экипажах было сказано лишь: "…это молодые, подтянутые ребята в синих элегантных костюмах спортивного покроя со значками на отворотах рубашек, где рубиновыми буквами было написано "СССР". В фильме принимают участие создатели луноходов и ветераны воздушно-космических сил, управлявшие этими удивительными машинами.

Качество: SATRip
Формат: AVI
Видео кодек: XviD
Аудио кодек: MP3
Видео: XviD, 720x384 (1.875), 25.000 fps, 1 686 Kbps (0.244 bit/pixel)
Аудио#1: MP3, 48.0 KHz, 2 ch, 128 Kbps, CBR
Общее
Полное имя : D:\download\Лунные скитальцы.avi
Формат : AVI
Формат/Информация : Audio Video Interleave
Размер файла : 512 Мбайт
Продолжительность : 39 м.
Общий поток : 1823 Кбит/сек
Программа кодирования : VirtualDubMod 1.5.10.3 | www.virtualdub-fr.org || (build 2550/release)
Библиотека кодирования : VirtualDubMod build 2550/release

Видео
Идентификатор : 0
Формат : MPEG-4 Visual
Профиль формата : Simple@L1
Параметр BVOP формата : Нет
Параметр QPel формата : Нет
Параметр GMC формата : Без точки перехода
Параметр матрицы формата : Default (H.263)
Идентификатор кодека : XVID
Идентификатор кодека/Подсказка : XviD
Продолжительность : 39 м.
Битрейт : 1686 Кбит/сек
Ширина : 720 пикселей
Высота : 384 пикселя
Соотношение сторон : 1,85:1
Частота кадров : 25,000 кадров/сек
Цветовое пространство : YUV
Субдискретизация насыщенности : 4:2:0
Битовая глубина : 8 бит
Тип развёртки : Прогрессивная
Метод сжатия : С потерями
Бит/(Пиксели*Кадры) : 0.244
Размер потока : 474 Мбайт (92%)
Библиотека кодирования : Lavc53.33.0

Аудио
Идентификатор : 1
Формат : MPEG Audio
Версия формата : Version 1
Профиль формата : Layer 3
Идентификатор кодека : 55
Идентификатор кодека/Подсказка : MP3
Продолжительность : 39 м.
Вид битрейта : Постоянный
Битрейт : 128 Кбит/сек
Каналы : 2 канала
Частота : 48,0 КГц
Метод сжатия : С потерями
Размер потока : 36,0 Мбайт (7%)
Выравнивание : Соединение по промежуткам
Продолжительность промежутка : 40 мс. (1,00 видеокадр)
Время предзагрузки промежутка : 504 мс.
Библиотека кодирования : LAME3.99r
Настройки программы : -m s -V 4 -q 2 -lowpass 17 -b 128



pb.wtf



Скачать Лунные скитальцы через торрент http://i77.fastpic.ru/big/2016/0418/07/04d705e7166d6a2f6c3085c52efabf07.png Скачать фильм Лунные скитальцы через торрент бесплантно в хорошем качестве Описание: 17 ноября 1970 года космический аппарат "Луна-17" доставил "Луноход-1" в Море Дождей. На следующий день водитель Вячеслав ... 8.5 10 6
Info! Золотая раздача, скачанное не засчитывается.
Торрент: Зарегистрирован [2016-04-18 15:09] · скачан: 64 раз
Статус: √ проверено
Размер: 512 MB
Как cкачать? Как скачать Лунные скитальцы через торрент | UTorrent

28-11-2019 20:33  

Отключить всю рекламу на сайте

    Дорогой пользователь! Огромная просьба, поблагодарите релизера, оцените раздачу и оставьте свои комментарий, если Вы скачали Лунные скитальцы через торрент бесплатно! Внесите свою лепту в развитие PiratBit!
    Комментировать посты могут только пользователи прошедшие не сложную регистрацию
    Показать сообщения:    

    Лунные скитальцы через торрент
    Скачать бесплатно Лунные скитальцы
    Лунные скитальцы скачать торрент
    Лунные скитальцы смотреть онлайн
    Cкачать фильм Лунные скитальцы бесплатно
    Лунные скитальцы скачать торрент в хорошем качестве
    Лунные скитальцы смотреть онлайн бесплатно в хорошем качестве


    Вы не можете начинать темы
    Вы не можете отвечать на сообщения
    Вы не можете редактировать свои сообщения
    Вы не можете удалять свои сообщения
    Вы не можете голосовать в опросах
    Вы не можете прикреплять файлы к сообщениям
    Вы можете скачивать файлы