новый адрес
Мега распродажа FORZA HORIZON 4 ULTIMATE+ВСЕ DLC+ОНЛАЙН всего за 499р. 349 руб. (супер цена). Внимание количество ограничено!!!

iTunes

1+1

iTunes

мы

iTunes

1

iTunes

Чернобыль

iTunes

Ральф против интернета

Лицензия

ПШазам

Лицензия

Оно 2

Лицензия

30
pack

ВАЖНО

!!Акция!!

Alien_RageХит недели

RePack

Resident Evil 21

ИГРА 18+

pack

RePack

Metro:Exodus

!!Акция!!

Alien_Rage

RePack

fifa19

RePack

Assassins Creed: Odyssey

RePack

NEED FOR SPEED™ PAYBACK

3 сезон

9 сезон

Бесстыжие 9 сезон

Все сериалы

все сериалы на PB.wtf

RePack

FAR CRY 5
Ребята, катастрофически не хватает 1900р. для оплаты серверов за Октябрь (всвязи с блокировками трафик упал в 3 раза), 1-2р., выручайте.
  

Шведская спичка (Константин Юдин) [1954, СССР, комедия, детектив, DVDRip от AVP Studio] pb.wtf

Шведская спичка через торрент pb.wtf

Размер: 745 MB | Добавлен: 3 года 7 мес. назад | Торрент скачан:18 раз
Скачать  

19-04-2016 09:29 Шведская спичка Скачать торрент  

Шведская спичка
Страна: СССР
Производство: Мосфильм

Жанр: комедия, детектив
Год выпуска: 1954
Продолжительность: 00:52:14

Перевод: Не требуется
Cубтитры: нет
Оригинальная аудиодорожка: русский

Режиссер: Константин Юдин

В ролях:
Алексей Грибов, Андрей Попов, Михаил Яншин, Марина Кузнецова, Михаил Названов, Ксения Тарасова, Николай Гриценко, Николай Курочкин, Владимир Колчин, Тамара Носова, Владимир Покровский, Георгий Георгиу...
Полный список актёров

Описание:
По рассказу А.П.Чехова.
В уездном городке пронеслись слухи, что убит местный помещик Кляузов. Соскучившиеся по большому делу следователь Чубиков и его помощник Дюковский развели бурную деятельность, но вскоре были разочарованы: помещик был жив, здоров и ему ничто не угрожало.

Источник: DVD5 R5
Качество видео: DVDRip
Формат видео: AVI

Видео: 688x512 (4:3), 25 fps, XviD ~ 1793 kbps avg, 0.204 bit/pixel
Аудио: 48 kHz, Dolby Digital AC3 2.0, 192 kbps

Раздача от:
Общее
Полное имя : Shvedskaya.spichka.1954.DVDRip_[New-team]_by_AVP_Studio.avi
Формат : AVI
Формат/Информация : Audio Video Interleave
Размер файла : 745 Мбайт
Продолжительность : 52 м.
Общий поток : 1994 Кбит/сек
Программа кодирования : VirtualDubMod 1.5.10.3 | www.virtualdub-fr.org || (build 2550/release)
Библиотека кодирования : VirtualDubMod build 2550/release

Видео
Идентификатор : 0
Формат : MPEG-4 Visual
Профиль формата : Advanced Simple@L5
Параметр BVOP формата : 1
Параметр QPel формата : Нет
Параметр GMC формата : Без точки перехода
Параметр матрицы формата : Выборочная
Идентификатор кодека : XVID
Идентификатор кодека/Подсказка : XviD
Продолжительность : 52 м.
Битрейт : 1793 Кбит/сек
Ширина : 688 пикселей
Высота : 512 пикселей
Соотношение сторон : 4:3
Частота кадров : 25,000 кадров/сек
Цветовое пространство : YUV
Субдискретизация насыщенности : 4:2:0
Битовая глубина : 8 бит
Тип развёртки : Прогрессивная
Метод сжатия : С потерями
Бит/(Пиксели*Кадры) : 0.204
Размер потока : 670 Мбайт (90%)
Библиотека кодирования : XviD 1.2.1 (UTC 2008-12-04)

Аудио
Идентификатор : 1
Формат : AC-3
Формат/Информация : Audio Coding 3
Расширение режима : CM (complete main)
Параметр Endianness формата : Big
Идентификатор кодека : 2000
Продолжительность : 52 м.
Вид битрейта : Постоянный
Битрейт : 192 Кбит/сек
Каналы : 2 канала
Расположение каналов : Front: L R
Частота : 48,0 КГц
Частота кадров : 31,250 кадров/сек (1536 spf)
Метод сжатия : С потерями
Размер потока : 71,7 Мбайт (10%)
Выравнивание : Разделение по промежуткам
Продолжительность промежутка : 40 мс. (1,00 видеокадр)
Время предзагрузки промежутка : 500 мс
pb.wtf



Скачать Шведская спичка через торрент http://s019.radikal.ru/i638/1604/57/d82aafdee8e9.png Скачать фильм Шведская спичка через торрент бесплантно в хорошем качестве Описание:По рассказу А.П.Чехова.В уездном городке пронеслись слухи, что убит местный помещик Кляузов. Соскучившиеся по большому делу ... 5 10 1
Торрент: Зарегистрирован [2016-04-19 09:29] · скачан: 18 раз
Статус: √ проверено
Размер: 745 MB
Как cкачать? Как скачать Шведская спичка через торрент | qTorrent

% Раздел Тема Автор DL S | L
Кино СССР [ 745 MB ] Шведская спичка [1954 СССР DVDRip-AVC от AVP Studio] AVP Studio Скачать
1 | 0


>> Регистрируемся здесь <<






Отзывы и комментарии о схеме читаем и пишем здесь: ---> Отзывы и комментарии о схеме

Новые благодарочки в телеграм довольных пользователей:
скриншот   скриншот   скриншот   скриншот   скриншот
    Дорогой пользователь! Огромная просьба, поблагодарите релизера, оцените раздачу и оставьте свои комментарий, если Вы скачали Шведская спичка через торрент бесплатно! Внесите свою лепту в развитие PiratBit!
    Комментировать посты могут только пользователи прошедшие не сложную регистрацию
    Показать сообщения:    

    Шведская спичка через торрент
    Скачать бесплатно Шведская спичка
    Шведская спичка скачать торрент
    Шведская спичка смотреть онлайн
    Cкачать фильм Шведская спичка бесплатно
    Шведская спичка скачать торрент в хорошем качестве
    Шведская спичка смотреть онлайн бесплатно в хорошем качестве


    Вы не можете начинать темы
    Вы не можете отвечать на сообщения
    Вы не можете редактировать свои сообщения
    Вы не можете удалять свои сообщения
    Вы не можете голосовать в опросах
    Вы не можете прикреплять файлы к сообщениям
    Вы можете скачивать файлы