новый адрес
Мега распродажа FORZA HORIZON 4 ULTIMATE+ВСЕ DLC+ОНЛАЙН всего за 499р. 349 руб. (супер цена). Внимание количество ограничено!!!

iTunes

1+1

iTunes

мы

iTunes

1

iTunes

Чернобыль

iTunes

Ральф против интернета

Лицензия

ПШазам

Лицензия

Игра престолов

Лицензия

30
pack

ВАЖНО

!!Акция!!

Alien_RageХит недели

RePack

Resident Evil 21

ИГРА 18+

pack

RePack

Metro:Exodus

!!Акция!!

Alien_Rage

RePack

fifa19

RePack

Assassins Creed: Odyssey

RePack

NEED FOR SPEED™ PAYBACK

3 сезон

9 сезон

Бесстыжие 9 сезон

Все сериалы

все сериалы на PB.wtf

RePack

FAR CRY 5
Ребята, катастрофически не хватает 1900р. для оплаты серверов за Октябрь (всвязи с блокировками трафик упал в 3 раза), 1-2р., выручайте.
  

Шведская спичка (Константин Юдин) [1954, СССР, комедия, детектив, DVDRip-AVC от AVP Studio] pb.wtf

Шведская спичка через торрент pb.wtf

Размер: 745 MB | Добавлен: 3 года 6 мес. назад | Торрент скачан:32 раза
Скачать  

19-04-2016 09:30 Шведская спичка Скачать торрент  

Шведская спичка
Страна: СССР
Производство: Мосфильм

Жанр: комедия, детектив
Год выпуска: 1954
Продолжительность: 00:52:14

Перевод: Не требуется
Cубтитры: нет
Оригинальная аудиодорожка: русский

Режиссер: Константин Юдин

В ролях:
Алексей Грибов, Андрей Попов, Михаил Яншин, Марина Кузнецова, Михаил Названов, Ксения Тарасова, Николай Гриценко, Николай Курочкин, Владимир Колчин, Тамара Носова, Владимир Покровский, Георгий Георгиу...
Полный список актёров

Описание:
По рассказу А.П.Чехова.
В уездном городке пронеслись слухи, что убит местный помещик Кляузов. Соскучившиеся по большому делу следователь Чубиков и его помощник Дюковский развели бурную деятельность, но вскоре были разочарованы: помещик был жив, здоров и ему ничто не угрожало.

Источник: DVD5 R5
Качество видео: DVDRip-AVC
Формат видео: MKV

Видео: 688->750x562 (4:3), 25 fps, H264 ~ 1799 kbps avg, 0.186 bit/pixel
Аудио: 48 kHz, Dolby Digital AC3 2.0, 192 kbps

Раздача от:
Общее
Полное имя : Shvedskaya.spichka.1954.DVDRip-AVC_[New-team]_by_AVP_Studio.mkv
Формат : Matroska
Версия формата : Version 2
Размер файла : 745 Мбайт
Продолжительность : 52 м.
Общий поток : 1993 Кбит/сек
Дата кодирования : UTC 2016-04-18 10:11:59
Программа кодирования : mkvmerge v6.1.0 ('Old Devil') built on Mar 4 2013 09:10:42
Библиотека кодирования : libebml v1.3.0 + libmatroska v1.4.0

Видео
Идентификатор : 1
Формат : AVC
Формат/Информация : Advanced Video Codec
Профиль формата : High@L4.1
Параметр CABAC формата : Да
Параметр ReFrames формата : 10 кадров
Идентификатор кодека : V_MPEG4/ISO/AVC
Продолжительность : 52 м.
Битрейт : 1799 Кбит/сек
Ширина : 688 пикселей
Высота : 562 пикселя
Соотношение сторон : 4:3
Режим частоты кадров : Постоянный
Частота кадров : 25,000 кадров/сек
Цветовое пространство : YUV
Субдискретизация насыщенности : 4:2:0
Битовая глубина : 8 бит
Тип развёртки : Прогрессивная
Бит/(Пиксели*Кадры) : 0.186
Размер потока : 658 Мбайт (88%)
Библиотека кодирования : x264 core 148 r2597 e86f3a1
Настройки программы : cabac=1 / ref=10 / deblock=1:-2:-1 / analyse=0x3:0x113 / me=umh / subme=10 / psy=1 / psy_rd=1.00:0.00 / mixed_ref=1 / me_range=32 / chroma_me=1 / trellis=2 / 8x8dct=1 / cqm=0 / deadzone=21,11 / fast_pskip=1 / chroma_qp_offset=-2 / threads=6 / lookahead_threads=1 / sliced_threads=0 / nr=0 / decimate=0 / interlaced=0 / bluray_compat=0 / constrained_intra=0 / bframes=8 / b_pyramid=2 / b_adapt=2 / b_bias=0 / direct=3 / weightb=1 / open_gop=0 / weightp=2 / keyint=250 / keyint_min=25 / scenecut=40 / intra_refresh=0 / rc=2pass / mbtree=0 / bitrate=1799 / ratetol=1.0 / qcomp=0.60 / qpmin=0 / qpmax=69 / qpstep=4 / cplxblur=20.0 / qblur=0.5 / ip_ratio=1.40 / pb_ratio=1.30 / aq=1:1.00
Default : Да
Forced : Нет

Аудио
Идентификатор : 2
Формат : AC-3
Формат/Информация : Audio Coding 3
Расширение режима : CM (complete main)
Параметр Endianness формата : Big
Идентификатор кодека : A_AC3
Продолжительность : 52 м.
Вид битрейта : Постоянный
Битрейт : 192 Кбит/сек
Каналы : 2 канала
Расположение каналов : Front: L R
Частота : 48,0 КГц
Частота кадров : 31,250 кадров/сек (1536 spf)
Метод сжатия : С потерями
Размер потока : 71,7 Мбайт (10%)
Default : Да
Forced : Нет
pb.wtf



Скачать Шведская спичка через торрент http://s019.radikal.ru/i638/1604/57/d82aafdee8e9.png Скачать фильм Шведская спичка через торрент бесплантно в хорошем качестве Описание:По рассказу А.П.Чехова.В уездном городке пронеслись слухи, что убит местный помещик Кляузов. Соскучившиеся по большому делу ... 5 10 1
Info! Золотая раздача, скачанное не засчитывается.
Торрент: Зарегистрирован [2016-04-19 09:30] · скачан: 32 раз
Статус: √ проверено
Размер: 745 MB
Как cкачать? Как скачать Шведская спичка через торрент | qTorrent

% Раздел Тема Автор DL S | L
Кино СССР [ 745 MB ] Шведская спичка [1954 СССР DVDRip от AVP Studio] AVP Studio Скачать
1 | 0


>> Регистрируемся здесь <<






Отзывы и комментарии о схеме читаем и пишем здесь: ---> Отзывы и комментарии о схеме

Новые благодарочки в телеграм довольных пользователей:
скриншот   скриншот   скриншот   скриншот   скриншот
    Дорогой пользователь! Огромная просьба, поблагодарите релизера, оцените раздачу и оставьте свои комментарий, если Вы скачали Шведская спичка через торрент бесплатно! Внесите свою лепту в развитие PiratBit!
    Комментировать посты могут только пользователи прошедшие не сложную регистрацию
    Показать сообщения:    

    Шведская спичка через торрент
    Скачать бесплатно Шведская спичка
    Шведская спичка скачать торрент
    Шведская спичка смотреть онлайн
    Cкачать фильм Шведская спичка бесплатно
    Шведская спичка скачать торрент в хорошем качестве
    Шведская спичка смотреть онлайн бесплатно в хорошем качестве


    Вы не можете начинать темы
    Вы не можете отвечать на сообщения
    Вы не можете редактировать свои сообщения
    Вы не можете удалять свои сообщения
    Вы не можете голосовать в опросах
    Вы не можете прикреплять файлы к сообщениям
    Вы можете скачивать файлы