Ссылка на приватное зеркало нашего сайта всего за 1$. Внимание количество ограничено!!!

2 сезон

iTunes

1 сезон

1

2 сезон

2 сезон

iTunes

1 сезон

RePack

30

Новинка

ВАЖНО

ИГРА 18+

pack

RePack

MK11
pack

Забери бонус

RePack

jed

!!Акция!!

Alien_Rage

RePack

fifa19

RePack

Assassins Creed: Odyssey

RePack

NEED FOR SPEED™ PAYBACK

4 сезон

9 сезон

Бесстыжие 9 сезон

Все сериалы

все сериалы на PB.wtf

RePack

FAR CRY 5
  

[Сборник лучших фильмов] Жан-Клод Ван Дамм / Jean-Claude Van Damme [1994-2011, драма, спорт, биография, боевик, BDRip 720p] (Часть 2) (60 Fps) от R.G. HD-Films pb.wtf

через торрент pb.wtf

Качают: 1 [ 0 KB/s ]
Размер: 59.93 GB | Добавлен: 3 года 5 мес. назад | Торрент скачан:54 раза
Скачать  

19-04-2016 17:16 Скачать торрент  

Жан-Клод Ван Дамм / Jean-Claude Van Damme(Часть 2)
Патруль времени / Timecop
Год выпуска: 1994
Страна: Канада, США, Япония
Жанр: фантастика, боевик, триллер, криминал

Продолжительность: 01:37:49
Перевод: Профессиональный (многоголосый)
Режиссер: Питер Хайамс
В ролях: Жан-Клод Ван Дамм (Walker), Миа Сара (Melissa), Рон Сильвер (McComb), Брюс МакГилл (Matuzak), Глория Рубен (Fielding), Скотт Беллис (Ricky), Джейсон Шомбинг (Atwood), Скотт Лоуренс (Spota), Кеннет Уэлш (Utley), Брент Вулси (Shotgun), Брэд Лори (Reyes), Шэйн Келли (Rollerblades)
Описание:
Передвижения во времени породили новый тип преступлений. Можно изменять события прошлого, контролировать финансовые рынки и даже уничтожать целые народы. Правительство США создает специальное полицейское подразделение - патруль времени.
Продажный сенатор, рвущийся к президентскому креслу, отправляется в прошлое, чтобы изменить ход истории. Вслед за ним отправляется полицейский Макс Уокер. Его ждет не только смертельная опасность, но и сильнейшее искушение, ведь, попав в прошлое, он может предотвратить смерть любимой жены...
Рейтинг:

Качество: BDRip 720p / / 60fps
Формат: MKV
Видео кодек: AVC
Аудио кодек:AC3
Видео: AVC, 1280x544 (2.35:1), 5235 kbps, 60 fps, 0,125 bpp
Аудио: русский / AC3 / 5.1 / 48 kHz / 384 kbps / 16 bit ||
General
Unique ID : 204334853740521793584132010249958608479 (0x99B9761B0A0A22AE86E717627A3E4E5F)
Complete name : E:\Jean-Claude Van Damme ( Part 2)\ Timecop (1994).720p.(60 Fps).mkv
Format : Matroska
Format version : Version 4 / Version 2
File size : 3.84 GiB
Duration : 1h 37mn
Overall bit rate : 5 619 Kbps
Movie name : Патруль времени / Timecop (1994) BDRip 720p от R.G. HD-Films | 60 fps
Encoded date : UTC 2015-11-23 10:37:31
Writing application : mkvmerge v6.2.0 ('Promised Land') built on Apr 28 2013 12:22:01
Writing library : libebml v1.3.0 + libmatroska v1.4.0

Video
ID : 1
Format : AVC
Format/Info : Advanced Video Codec
Format profile : High@L4.1
Format settings, CABAC : Yes
Format settings, ReFrames : 4 frames
Codec ID : V_MPEG4/ISO/AVC
Duration : 1h 37mn
Bit rate : 5 235 Kbps
Width : 1 280 pixels
Height : 544 pixels
Display aspect ratio : 2.35:1
Frame rate : 60.000 fps
Color space : YUV
Chroma subsampling : 4:2:0
Bit depth : 8 bits
Scan type : Progressive
Bits/(Pixel*Frame) : 0.125
Stream size : 3.50 GiB (91%)
Title : slaventi-69 ( R.G. HD-Films | 60 fps )
Writing library : x264 core 130 r2273 b3065e6
Encoding settings : cabac=1 / ref=4 / deblock=1:0:0 / analyse=0x3:0x113 / me=umh / subme=9 / psy=1 / psy_rd=1.00:0.00 / mixed_ref=1 / me_range=24 / chroma_me=1 / trellis=2 / 8x8dct=1 / cqm=0 / deadzone=21,11 / fast_pskip=1 / chroma_qp_offset=-2 / threads=8 / lookahead_threads=1 / sliced_threads=0 / nr=0 / decimate=1 / interlaced=0 / bluray_compat=0 / constrained_intra=0 / bframes=4 / b_pyramid=2 / b_adapt=2 / b_bias=0 / direct=3 / weightb=1 / open_gop=0 / weightp=2 / keyint=250 / keyint_min=25 / scenecut=40 / intra_refresh=0 / rc_lookahead=40 / rc=2pass / mbtree=1 / bitrate=5235 / ratetol=1.0 / qcomp=0.60 / qpmin=0 / qpmax=69 / qpstep=4 / cplxblur=20.0 / qblur=0.5 / ip_ratio=1.40 / aq=1:1.00
Language : English
Default : Yes
Forced : No

Audio
ID : 2
Format : AC-3
Format/Info : Audio Coding 3
Mode extension : CM (complete main)
Codec ID : A_AC3
Duration : 1h 37mn
Bit rate mode : Constant
Bit rate : 384 Kbps
Channel(s) : 6 channels
Channel positions : Front: L C R, Side: L R, LFE
Sampling rate : 48.0 KHz
Bit depth : 16 bits
Compression mode : Lossy
Stream size : 269 MiB (7%)
Title : MVO
Language : Russian
Default : Yes
Forced : No
скриншот   скриншот   скриншот   скриншот  
Внезапная смерть / Sudden Death
Год выпуска: 1995
Страна: США
Жанр: боевик, триллер, драма, криминал

Продолжительность: 01:49:52
Перевод: Профессиональный (двухголосый)
Режиссер: Питер Хайамс
В ролях: Жан-Клод Ван Дамм (Darren McCord), Пауэрс Бут (Joshua Foss), Рэймонд Дж. Бэрри (Viсе President), Уиттни Райт (Emily McCord), Росс Мэлинджер (Tyler McCord), Дориан Хэрвуд (Hallmark), Кейт МакНил (Kathi), Майкл Гэстон (Hickey), Одра Линдли (Mrs. Ferrara), Брайан Дилейт (Blair), Стив Аронсон (Dooley), Майкл Р. Обеле (Ace)
Описание:
Во время проведения решающего хоккейного матча кубка Стенли гигантский стадион оказывается в заложниках у группы террористов, возглавляемых бывшим сотрудником службы безопасности. В случае отказа или задержки выполнения их требований (перевод значительной суммы на различные банковские счета) преступники грозят взорвать здание.
На их беду, среди персонала спорткомплекса оказывается мужественный пожарный, а среди зрителей, подвергающихся смертельной опасности, - его дети.
Рейтинг:

Качество: BDRip 720p / / 60fps
Формат: MKV
Видео кодек: AVC
Аудио кодек:AC3
Видео: AVC, 1280x544 (2.35:1), 5218 kbps, 60 fps, 0,125 bpp
Аудио: русский / AC3 / 5.1 / 48 kHz / 384 kbps / 16 bit ||
General
Unique ID : 176241022454679251183067185046805781851 (0x8496C9482BB97CF596A423B4976F9D5B)
Complete name : E:\Jean-Claude Van Damme ( Part 2)\Sudden Death (1995).720p.(60 Fps).mkv
Format : Matroska
Format version : Version 4 / Version 2
File size : 4.39 GiB
Duration : 1h 49mn
Overall bit rate : 5 717 Kbps
Movie name : Внезапная смерть / Sudden Death (1995) BDRip 720p от R.G. HD-Films | 60 fps
Encoded date : UTC 2015-11-23 10:56:11
Writing application : mkvmerge v6.2.0 ('Promised Land') built on Apr 28 2013 12:22:01
Writing library : libebml v1.3.0 + libmatroska v1.4.0

Video
ID : 1
Format : AVC
Format/Info : Advanced Video Codec
Format profile : High@L4.1
Format settings, CABAC : Yes
Format settings, ReFrames : 4 frames
Codec ID : V_MPEG4/ISO/AVC
Duration : 1h 49mn
Bit rate : 5 219 Kbps
Width : 1 280 pixels
Height : 544 pixels
Display aspect ratio : 2.35:1
Frame rate : 60.000 fps
Color space : YUV
Chroma subsampling : 4:2:0
Bit depth : 8 bits
Scan type : Progressive
Bits/(Pixel*Frame) : 0.125
Stream size : 4.01 GiB (91%)
Title : slaventi-69 ( R.G. HD-Films | 60 fps )
Writing library : x264 core 130 r2273 b3065e6
Encoding settings : cabac=1 / ref=4 / deblock=1:0:0 / analyse=0x3:0x113 / me=umh / subme=9 / psy=1 / psy_rd=1.00:0.00 / mixed_ref=1 / me_range=24 / chroma_me=1 / trellis=2 / 8x8dct=1 / cqm=0 / deadzone=21,11 / fast_pskip=1 / chroma_qp_offset=-2 / threads=8 / lookahead_threads=1 / sliced_threads=0 / nr=0 / decimate=1 / interlaced=0 / bluray_compat=0 / constrained_intra=0 / bframes=4 / b_pyramid=2 / b_adapt=2 / b_bias=0 / direct=1 / weightb=1 / open_gop=0 / weightp=2 / keyint=250 / keyint_min=25 / scenecut=40 / intra_refresh=0 / rc_lookahead=40 / rc=crf / mbtree=1 / crf=16.5 / qcomp=0.60 / qpmin=0 / qpmax=69 / qpstep=4 / ip_ratio=1.40 / aq=1:1.00
Language : English
Default : Yes
Forced : No

Audio
ID : 2
Format : AC-3
Format/Info : Audio Coding 3
Mode extension : CM (complete main)
Codec ID : A_AC3
Duration : 1h 49mn
Bit rate mode : Constant
Bit rate : 384 Kbps
Channel(s) : 6 channels
Channel positions : Front: L C R, Side: L R, LFE
Sampling rate : 48.0 KHz
Bit depth : 16 bits
Compression mode : Lossy
Stream size : 302 MiB (7%)
Title : DVO
Language : Russian
Default : Yes
Forced : No
скриншот   скриншот   скриншот   скриншот  
Максимальный риск / Maximum Risk
Год выпуска: 1996
Страна: США
Жанр: боевик, триллер, мелодрама, криминал, детектив

Продолжительность: 01:40:29
Перевод: Дубляж
Режиссер: Ринго Лам
В ролях: Жан-Клод Ван Дамм (Alain Moreau / Mikhail Suverov), Наташа Хенстридж (Alex), Жан-Юг Англад (Sebastien), Зэк Гренье (Ivan Dzasokhov), Пол Бен-Виктор (Agent Pellman), Фрэнк Сенгер (Agent Loomis), Стефанос Мильцакакис (Red Face), Франк Ван Кекен (Davis Hartley), Дэвид Хемблен (Dmitri Kirov), Стефан Одран (Chantal Moreau), Дэн Моран (Yuri), Дональд Бурда (Nicholas)
Описание:
Французский полицейский Ален Моро узнает о том, что один из погибших в перестрелке бандитов по имени Михаил очень похож на него. И это мягко сказано: на самом деле у них просто одно лицо. Мать Алена неожиданно признается в том, что Михаил - это его брат-близнец, оставленный в роддоме по настоянию семьи. Полицейский решает узнать о погибшем брате как можно больше. Он отправляется в Нью-Йорк. И чем ближе он к цели, тем меньше шансов выжить.
Рейтинг:

Качество: BDRip 720p / / 60fps
Формат: MKV
Видео кодек: AVC
Аудио кодек:AC3
Видео: AVC, 1280x536 (2.40:1), 5045 kbps, 60 fps, 0,123 bpp
Аудио: русский / AC3 / 5.1 / 48 kHz / 384 kbps / 16 bit ||
General
Unique ID : 249573988331766300524596039402018908850 (0xBBC233A5AE24A146A88ED811D7A92AB2)
Complete name : E:\Jean-Claude Van Damme ( Part 2)\Maximum Risk (1996).720p.(60 Fps).mkv
Format : Matroska
Format version : Version 4 / Version 2
File size : 3.89 GiB
Duration : 1h 40mn
Overall bit rate : 5 539 Kbps
Movie name : Максимальный риск / Maximum Risk (1996) BDRip 720p от R.G. HD-Films | 60 fps
Encoded date : UTC 2015-11-23 11:04:48
Writing application : mkvmerge v6.2.0 ('Promised Land') built on Apr 28 2013 12:22:01
Writing library : libebml v1.3.0 + libmatroska v1.4.0

Video
ID : 1
Format : AVC
Format/Info : Advanced Video Codec
Format profile : Main@L4.1
Format settings, CABAC : Yes
Format settings, ReFrames : 4 frames
Codec ID : V_MPEG4/ISO/AVC
Duration : 1h 40mn
Bit rate : 5 045 Kbps
Width : 1 280 pixels
Height : 536 pixels
Display aspect ratio : 2.40:1
Frame rate : 60.000 fps
Color space : YUV
Chroma subsampling : 4:2:0
Bit depth : 8 bits
Scan type : Progressive
Bits/(Pixel*Frame) : 0.123
Stream size : 3.54 GiB (91%)
Title : slaventi-69 ( R.G. HD-Films | 60 fps )
Writing library : x264 core 130 r2273 b3065e6
Encoding settings : cabac=1 / ref=4 / deblock=1:0:0 / analyse=0x1:0x111 / me=umh / subme=9 / psy=1 / psy_rd=1.00:0.00 / mixed_ref=1 / me_range=24 / chroma_me=1 / trellis=2 / 8x8dct=0 / cqm=0 / deadzone=21,11 / fast_pskip=1 / chroma_qp_offset=-2 / threads=8 / lookahead_threads=1 / sliced_threads=0 / nr=0 / decimate=1 / interlaced=0 / bluray_compat=0 / constrained_intra=0 / bframes=4 / b_pyramid=2 / b_adapt=2 / b_bias=0 / direct=1 / weightb=1 / open_gop=0 / weightp=2 / keyint=250 / keyint_min=25 / scenecut=40 / intra_refresh=0 / rc_lookahead=40 / rc=crf / mbtree=1 / crf=15.0 / qcomp=0.60 / qpmin=0 / qpmax=69 / qpstep=4 / ip_ratio=1.40 / aq=1:1.00
Language : English
Default : Yes
Forced : No

Audio
ID : 2
Format : AC-3
Format/Info : Audio Coding 3
Mode extension : CM (complete main)
Codec ID : A_AC3
Duration : 1h 40mn
Bit rate mode : Constant
Bit rate : 384 Kbps
Channel(s) : 6 channels
Channel positions : Front: L C R, Side: L R, LFE
Sampling rate : 48.0 KHz
Bit depth : 16 bits
Compression mode : Lossy
Stream size : 276 MiB (7%)
Title : DUB
Language : Russian
Default : Yes
Forced : No
скриншот   скриншот   скриншот   скриншот  
В поисках приключений / The Quest
Год выпуска: 1996
Страна: США, Канада
Жанр: боевик, триллер, приключения
Продолжительность: 01:34:35
Перевод: Профессиональный + Оригинал
Субтитры: Russian, English

Режиссер: Жан-Клод Ван Дамм
Продюссер: Моше Дайамант, Джейсон Кларк, Роберт Хэцки
Сценарий: Стивен Клейн, Пол Моунс, Фрэнк Дюкс

Бюджет: $30 000 000
Премьера в мире: 19 апреля 1996

IMDB 5.40 (16 403)



В ролях: Жан-Клод Ван Дамм, Роджер Мур, Джеймс Римар, Джанет Ганн, Джек МакГи, Аки Алеонг, Абдель Кисси, Луис Мэндилор, Чанг Чинг Пенг Чаплин, Райан Кутрона

Описание: Было время, когда в мире еще хватало места для пиратской резни, ловушек контрабандистов, работорговцев и древних тайн загадочного Востока. Когда настоящие мужчины могли отправиться на поиски невероятных приключений. Уличный преступник отправляется в путешествие в поисках своего прошлого и будущего.Его одиссея проходит через самые экзотические страны и живописнейшие уголки земного шара, от подворотен Нью-Йорка до загадочного волшебного тибетского Затерянного Города, где становится для него испытанием на честь и мужество в древних мифических состязаниях «Ган-генг» — боях до победного конца лучших бойцов со всего мира за обладание вожделенным призом — Золотым Драконом.


Качество: BDRip 720p / 60 Fps
Формат: MKV
Видео кодек: H.264
Аудио кодек: AC3
Видео: x264, 1280 x 544 (2,35:1), 5624 kbps, 59,880 fps, ( 0.135 bpp)
Аудио#1: AC-3, 48.0 KHz, 6 ch, 384 Kbps (Russian MVO)
Аудио#2: AC-3, 48.0 KHz, 6 ch, 384 Kbps ( English )



скриншот   скриншот   скриншот   скриншот   скриншот   скриншот  Автор рипа: slaventi-69
Общее
Уникальный идентификатор : 244891395939853683372145764044584928578 (0xB83C5E0482DE344CAAEFBA47B1B24542)
Полное имя : D:\ The.Quest.1996.BDRip.720.(60 Fps).mkv
Формат : Matroska
Версия формата : Version 4 / Version 2
Размер файла : 4,22 Гбайт
Продолжительность : 1 ч. 34 м.
Общий поток : 6393 Кбит/сек
Название фильма : В поисках приключений / The Quest (1996) BDRip 720 ( 60 Fps )
Дата кодирования : UTC 2015-04-14 07:01:01
Программа кодирования : mkvmerge v6.2.0 ('Promised Land') built on Apr 28 2013 12:22:01
Библиотека кодирования : libebml v1.3.0 + libmatroska v1.4.0

Видео
Идентификатор : 1
Формат : AVC
Формат/Информация : Advanced Video Codec
Профиль формата : High@L4.1
Параметр CABAC формата : Да
Параметр ReFrames формата : 4 кадра
Идентификатор кодека : V_MPEG4/ISO/AVC
Продолжительность : 1 ч. 34 м.
Битрейт : 5624 Кбит/сек
Ширина : 1280 пикселей
Высота : 544 пикселя
Соотношение сторон : 2,35:1
Режим частоты кадров : Постоянный
Частота кадров : 59,880 кадров/сек
Частота кадров в оригинале : 59,940 кадров/сек
Цветовое пространство : YUV
Субдискретизация насыщенности : 4:2:0
Битовая глубина : 8 бит
Тип развёртки : Прогрессивная
Бит/(Пиксели*Кадры) : 0.135
Размер потока : 3,63 Гбайт (86%)
Заголовок : The Quest (1996) BDRip 720 ( 60 Fps ).mkv
Библиотека кодирования : x264 core 130 r2273 b3065e6
Настройки программы : cabac=1 / ref=4 / deblock=1:0:0 / analyse=0x3:0x113 / me=umh / subme=7 / psy=1 / psy_rd=1.00:0.10 / mixed_ref=1 / me_range=24 / chroma_me=1 / trellis=2 / 8x8dct=1 / cqm=0 / deadzone=21,11 / fast_pskip=1 / chroma_qp_offset=-3 / threads=3 / lookahead_threads=1 / sliced_threads=0 / nr=0 / decimate=1 / interlaced=0 / bluray_compat=0 / constrained_intra=0 / bframes=4 / b_pyramid=2 / b_adapt=2 / b_bias=0 / direct=3 / weightb=1 / open_gop=0 / weightp=2 / keyint=250 / keyint_min=25 / scenecut=40 / intra_refresh=0 / rc_lookahead=50 / rc=2pass / mbtree=1 / bitrate=5624 / ratetol=1.0 / qcomp=0.60 / qpmin=0 / qpmax=69 / qpstep=4 / cplxblur=20.0 / qblur=0.5 / ip_ratio=1.40 / aq=1:1.00
Язык : English
Default : Да
Forced : Нет

Аудио #1
Идентификатор : 2
Формат : AC-3
Формат/Информация : Audio Coding 3
Расширение режима : CM (complete main)
Параметр Endianness формата : Big
Идентификатор кодека : A_AC3
Продолжительность : 1 ч. 34 м.
Вид битрейта : Постоянный
Битрейт : 384 Кбит/сек
Каналы : 6 каналов
Расположение каналов : Front: L C R, Side: L R, LFE
Частота : 48,0 КГц
Битовая глубина : 16 бит
Метод сжатия : С потерями
Задержка видео : 1 с. 0 мс.
Размер потока : 260 Мбайт (6%)
Заголовок : MVO
Язык : Russian
Default : Да
Forced : Нет

Аудио #2
Идентификатор : 3
Формат : AC-3
Формат/Информация : Audio Coding 3
Расширение режима : CM (complete main)
Параметр Endianness формата : Big
Идентификатор кодека : A_AC3
Продолжительность : 1 ч. 34 м.
Вид битрейта : Постоянный
Битрейт : 384 Кбит/сек
Каналы : 6 каналов
Расположение каналов : Front: L C R, Side: L R, LFE
Частота : 48,0 КГц
Битовая глубина : 16 бит
Метод сжатия : С потерями
Размер потока : 260 Мбайт (6%)
Заголовок : Original
Язык : English
Default : Нет
Forced : Нет

Текст #1
Идентификатор : 4
Формат : UTF-8
Идентификатор кодека : S_TEXT/UTF8
Идентификатор кодека/Информация : UTF-8 Plain Text
Заголовок : Rus
Язык : Russian
Default : Нет
Forced : Нет

Текст #2
Идентификатор : 5
Формат : UTF-8
Идентификатор кодека : S_TEXT/UTF8
Идентификатор кодека/Информация : UTF-8 Plain Text
Заголовок : Eng
Язык : English
Default : Нет
Forced : Нет

Меню
00:00:00.000 : :Chapter 01
00:03:02.306 : :Chapter 02
00:07:03.923 : :Chapter 03
00:14:49.888 : :Chapter 04
00:20:49.665 : :Chapter 05
00:27:52.504 : :Chapter 06
00:35:59.282 : :Chapter 07
00:40:10.074 : :Chapter 08
00:46:52.184 : :Chapter 09
00:52:59.384 : :Chapter 10
00:59:32.569 : :Chapter 11
01:09:12.857 : :Chapter 12
01:14:04.273 : :Chapter 13
01:21:10.740 : :Chapter 14
01:25:49.644 : :Chapter 15
01:29:48.299 : :Chapter 16
01:33:34.752 : :Chapter 17
Колония / Double Team
Год выпуска: 1997
Страна: США
Жанр: фантастика, боевик, триллер, комедия

Продолжительность: 01:33:00
Перевод: Дубляж
Режиссер: Цуй Харк
В ролях: Жан-Клод Ван Дамм (Jack Quinn), Дэннис Родман (Yaz), Микки Рурк (Stavros), Пол Фримен (Goldsmythe), Наташа Линдинжер (Kathryn Quinn), Валерия Кавалли (Dr. Maria Trifioli), Джей Бенедикт (Brandon), Джоэлль Дэво-Вуллион (Stavros' Girlfriend), Бруно Билотта (Kofi), Марио Опинато (James), Грант Расселл (Carney), Уильям Данн (Roger)
Описание:
Жан-Клод в роли секретного суперагента Джека Куинна. Ему поручают убрать опасного международного террориста Ставроса, но в самый ответственный момент, когда нужно было нажимать на спусковой курок, Ставрос обнимал жену и ребенка. Рука Джека дрогнула, и он упустил врага, хотя жена и сын его погибли.
Теперь у Ставроса были и веские личные счеты с теми, кто заказал его убийство. Итак, Джек совершил ошибку, а такое не прощается, и он был помещен в Колонию, став «мертвецом» для всего остального мира, включая собственную семью. Здесь обитали «мертвые» лучшие шпионы и агенты со всей планеты.
Они были слишком опасны, чтобы жить, и слишком дорого стоили, чтобы быть убитыми. Их использовали для анализа и отработки экстремальных ситуаций. Однако Куинн не смирился и совершил невероятный побег, чтобы довести задание до конца. Он находит себе партнера, эксцентричного торговца оружием, чернокожего лихого парня с единственной страстью - разрушать. У них разный стиль, но одна задача...
Рейтинг:

Качество: BDRip 720p / / 60fps
Формат: MKV
Видео кодек: AVC
Аудио кодек:AC3
Видео: AVC, 1280x544 (2.35:1), 4967 kbps, 59,940 fps, 0,119 bpp
Аудио: русский / AC3 / 5.1 / 48 kHz / 384 kbps / 16 bit ||
General
Unique ID : 205380583476519484205313565791918105730 (0x9A82DC8FF00D9F01A1641483A1922482)
Complete name : E:\Jean-Claude Van Damme ( Part 2)\Double Team (1997).720p.(60 Fps).mkv
Format : Matroska
Format version : Version 4 / Version 2
File size : 3.55 GiB
Duration : 1h 33mn
Overall bit rate : 5 460 Kbps
Movie name : Колония / Double Team (1997) BDRip 720p от R.G. HD-Films | 60 fps
Encoded date : UTC 2015-11-23 10:59:51
Writing application : mkvmerge v6.2.0 ('Promised Land') built on Apr 28 2013 12:22:01
Writing library : libebml v1.3.0 + libmatroska v1.4.0

Video
ID : 1
Format : AVC
Format/Info : Advanced Video Codec
Format profile : Main@L4.1
Format settings, CABAC : Yes
Format settings, ReFrames : 4 frames
Codec ID : V_MPEG4/ISO/AVC
Duration : 1h 33mn
Bit rate : 4 967 Kbps
Width : 1 280 pixels
Height : 544 pixels
Display aspect ratio : 2.35:1
Frame rate : 59.940 fps
Color space : YUV
Chroma subsampling : 4:2:0
Bit depth : 8 bits
Scan type : Progressive
Bits/(Pixel*Frame) : 0.119
Stream size : 3.23 GiB (91%)
Title : slaventi-69 ( R.G. HD-Films | 60 fps )
Writing library : x264 core 130 r2273 b3065e6
Encoding settings : cabac=1 / ref=4 / deblock=1:0:0 / analyse=0x1:0x111 / me=umh / subme=9 / psy=1 / psy_rd=1.00:0.00 / mixed_ref=1 / me_range=24 / chroma_me=1 / trellis=2 / 8x8dct=0 / cqm=0 / deadzone=21,11 / fast_pskip=1 / chroma_qp_offset=-2 / threads=3 / lookahead_threads=1 / sliced_threads=0 / nr=0 / decimate=1 / interlaced=0 / bluray_compat=0 / constrained_intra=0 / bframes=4 / b_pyramid=2 / b_adapt=2 / b_bias=0 / direct=1 / weightb=1 / open_gop=0 / weightp=2 / keyint=250 / keyint_min=25 / scenecut=40 / intra_refresh=0 / rc_lookahead=40 / rc=crf / mbtree=1 / crf=15.0 / qcomp=0.60 / qpmin=0 / qpmax=69 / qpstep=4 / ip_ratio=1.40 / aq=1:1.00
Language : English
Default : Yes
Forced : No

Audio
ID : 2
Format : AC-3
Format/Info : Audio Coding 3
Mode extension : CM (complete main)
Codec ID : A_AC3
Duration : 1h 33mn
Bit rate mode : Constant
Bit rate : 384 Kbps
Channel(s) : 6 channels
Channel positions : Front: L C R, Side: L R, LFE
Sampling rate : 48.0 KHz
Bit depth : 16 bits
Compression mode : Lossy
Stream size : 255 MiB (7%)
Title : DUB
Language : Russian
Default : Yes
Forced : No
скриншот   скриншот   скриншот   скриншот  
Легионер / Legionnaire
Год выпуска: 1998
Страна: США
Жанр: боевик, драма, приключения, военный

Продолжительность: 01:38:28
Перевод: Профессиональный (двухголосый)
Режиссер: Питер МакДональд
В ролях: Жан-Клод Ван Дамм (Alain Lefevre), Адевале Акинойе-Агбаже (Luther), Стивен Беркофф (Sgt. Steinkampf), Николас Фэррел (Mackintosh), Джим Картер (Lucien Galgani), Ана Софренович (Katrina), Даниэль Кальтаджироне (Guido Rosetti), Джозеф Лонг (Maxim), Марио Калли (René Galgano), Джо Монтана (Julot), Ким Ромер (Capt. Rousselot), Андерс Питер Бро (Lt. Charlier)
Описание:
Профессиональный боксер Ален Лефевр по указанию босса местной мафии должен проиграть свой очередной бой. Но у Лефевра были другие планы...
Рейтинг:

Качество: BDRip 720p / / 60fps
Формат: MKV
Видео кодек: AVC
Аудио кодек:AC3
Видео: AVC, 1280x544 (2.35:1), 5124 kbps, 60 fps, 0,123 bpp
Аудио: русский / AC3 / 5.1 / 48 kHz / 384 kbps / 16 bit ||
General
Unique ID : 184581514117888073290151255317226009092 (0x8ADD1B45068FFB70B4BFF87BF88D3204)
Complete name : E:\Jean-Claude Van Damme ( Part 2)\Legionnaire (1998).720p.(60 Fps).mkv
Format : Matroska
Format version : Version 4 / Version 2
File size : 3.87 GiB
Duration : 1h 38mn
Overall bit rate : 5 620 Kbps
Movie name : Легионер / Legionnaire (1998) BDRip 720p от R.G. HD-Films | 60 fps
Encoded date : UTC 2015-11-23 11:18:04
Writing application : mkvmerge v6.2.0 ('Promised Land') built on Apr 28 2013 12:22:01
Writing library : libebml v1.3.0 + libmatroska v1.4.0

Video
ID : 1
Format : AVC
Format/Info : Advanced Video Codec
Format profile : Main@L4.1
Format settings, CABAC : Yes
Format settings, ReFrames : 4 frames
Codec ID : V_MPEG4/ISO/AVC
Duration : 1h 38mn
Bit rate : 5 124 Kbps
Width : 1 280 pixels
Height : 544 pixels
Display aspect ratio : 2.35:1
Frame rate : 60.000 fps
Color space : YUV
Chroma subsampling : 4:2:0
Bit depth : 8 bits
Scan type : Progressive
Bits/(Pixel*Frame) : 0.123
Stream size : 3.52 GiB (91%)
Title : slaventi-69 ( R.G. HD-Films | 60 fps )
Writing library : x264 core 130 r2273 b3065e6
Encoding settings : cabac=1 / ref=4 / deblock=1:0:0 / analyse=0x1:0x111 / me=umh / subme=9 / psy=1 / psy_rd=1.00:0.00 / mixed_ref=1 / me_range=24 / chroma_me=1 / trellis=2 / 8x8dct=0 / cqm=0 / deadzone=21,11 / fast_pskip=1 / chroma_qp_offset=-2 / threads=8 / lookahead_threads=1 / sliced_threads=0 / nr=0 / decimate=1 / interlaced=0 / bluray_compat=0 / constrained_intra=0 / bframes=4 / b_pyramid=2 / b_adapt=2 / b_bias=0 / direct=1 / weightb=1 / open_gop=0 / weightp=2 / keyint=250 / keyint_min=25 / scenecut=40 / intra_refresh=0 / rc_lookahead=40 / rc=crf / mbtree=1 / crf=15.0 / qcomp=0.60 / qpmin=0 / qpmax=69 / qpstep=4 / ip_ratio=1.40 / aq=1:1.00
Language : English
Default : Yes
Forced : No

Audio
ID : 2
Format : AC-3
Format/Info : Audio Coding 3
Mode extension : CM (complete main)
Codec ID : A_AC3
Duration : 1h 38mn
Bit rate mode : Constant
Bit rate : 384 Kbps
Channel(s) : 6 channels
Channel positions : Front: L C R, Side: L R, LFE
Sampling rate : 48.0 KHz
Bit depth : 16 bits
Compression mode : Lossy
Stream size : 270 MiB (7%)
Title : DVO
Language : Russian
Default : Yes
Forced : No
скриншот   скриншот   скриншот   скриншот  
Инферно (видео) / Inferno
Год выпуска: 1999
Страна: США, Франция
Жанр: боевик, драма, мелодрама

Продолжительность: 01:34:57
Перевод: Профессиональный (одноголосый)
Режиссер: Джон Г. Эвилдсен
В ролях: Жан-Клод Ван Дамм (Eddie Lomax), Пэт Морита (Jubal Early), Дэнни Трехо (Johnny Six Toes), Гэбриэлль Фицпатрик (Rhonda Reynolds), Ларри Дрэйк (Ramsey Hogan), Винсент Скьявелли (Mr. Singh), Дэвид ’Шарк’ Фралик (Matt Hogan), Сайлас Уэйр Митчелл (Jesse Hogan), Джонатан Эвилдсен (Petey Hogan), Джейми Прессли (Dottie Matthews), Билл Эрвин (Eli Hamilton), Форд Рейни (Pop Reynolds)
Описание:
Эдди Ломакс - одинокий воин, утративший веру в себя. Поиски старого друга - одинокого индейца-шамана - приводят его в разрушенный город с адским названием Инферно, где у Эдди много врагов. Полная луна и зов койота помогут ему обрести былую силу и осуществить благородную цель: защитить местных жителей от жестоких банд байкеров и контрабандистов.
Рейтинг:

Качество: BDRip 720p / / 60fps
Формат: MKV
Видео кодек: AVC
Аудио кодек:AC3
Видео: AVC, 1280x720 (16:9), 5787 kbps, 60 fps, 0,105 bpp
Аудио: русский / AC3 / 2.0 / 48 kHz / 384 kbps / 16 bit ||
General
Unique ID : 188287791706189997624097572388575865551 (0x8DA6E8DCEB27204693D1B13F7ED36ACF)
Complete name : E:\Jean-Claude Van Damme ( Part 2)\Inferno (1999).720p.(60 Fps).mkv
Format : Matroska
Format version : Version 4 / Version 2
File size : 4.18 GiB
Duration : 1h 34mn
Overall bit rate : 6 297 Kbps
Movie name : Инферно / Inferno (1999) BDRip 720p от R.G. HD-Films | 60 fps
Encoded date : UTC 2015-11-26 07:26:35
Writing application : mkvmerge v6.2.0 ('Promised Land') built on Apr 28 2013 12:22:01
Writing library : libebml v1.3.0 + libmatroska v1.4.0

Video
ID : 1
Format : AVC
Format/Info : Advanced Video Codec
Format profile : Main@L4.1
Format settings, CABAC : Yes
Format settings, ReFrames : 4 frames
Codec ID : V_MPEG4/ISO/AVC
Duration : 1h 34mn
Bit rate : 5 788 Kbps
Width : 1 280 pixels
Height : 720 pixels
Display aspect ratio : 16:9
Frame rate : 60.000 fps
Color space : YUV
Chroma subsampling : 4:2:0
Bit depth : 8 bits
Scan type : Progressive
Bits/(Pixel*Frame) : 0.105
Stream size : 3.84 GiB (92%)
Title : slaventi-69 ( R.G. HD-Films | 60 fps )
Writing library : x264 core 130 r2273 b3065e6
Encoding settings : cabac=1 / ref=4 / deblock=1:0:0 / analyse=0x1:0x111 / me=umh / subme=9 / psy=1 / psy_rd=1.00:0.00 / mixed_ref=1 / me_range=24 / chroma_me=1 / trellis=2 / 8x8dct=0 / cqm=0 / deadzone=21,11 / fast_pskip=1 / chroma_qp_offset=-2 / threads=8 / lookahead_threads=1 / sliced_threads=0 / nr=0 / decimate=1 / interlaced=0 / bluray_compat=0 / constrained_intra=0 / bframes=4 / b_pyramid=2 / b_adapt=2 / b_bias=0 / direct=1 / weightb=1 / open_gop=0 / weightp=2 / keyint=250 / keyint_min=25 / scenecut=40 / intra_refresh=0 / rc_lookahead=40 / rc=crf / mbtree=1 / crf=15.5 / qcomp=0.60 / qpmin=0 / qpmax=69 / qpstep=4 / ip_ratio=1.40 / aq=1:1.00
Language : English
Default : Yes
Forced : No

Audio
ID : 2
Format : AC-3
Format/Info : Audio Coding 3
Mode extension : CM (complete main)
Codec ID : A_AC3
Duration : 1h 34mn
Bit rate mode : Constant
Bit rate : 384 Kbps
Channel(s) : 2 channels
Channel positions : Front: L R
Sampling rate : 48.0 KHz
Bit depth : 16 bits
Compression mode : Lossy
Stream size : 261 MiB (6%)
Title : Сербин
Language : Russian
Default : Yes
Forced : No
скриншот   скриншот   скриншот   скриншот  
Тайна ордена / The Order
Год выпуска: 2001
Страна: Аруба, США
Жанр: боевик, комедия, приключения

Продолжительность: 01:29:17
Перевод: Профессиональный (многоголосый)
Режиссер: Шелдон Леттич
В ролях: Жан-Клод Ван Дамм (Rudy Cafmeyer / Charles Le Vaillant), Чарлтон Хестон (Prof. Walter Finley), София Милош (Lt. Dalia Barr), Брайан Томпсон (Cyrus Jacob), Бен Кросс (Maj. Ben Ner), Вернон Добчефф (Prof. Oscar Cafmeyer), Сэссон Габаи (Yuri), Алон Абутбул (Avram), Джой Томаска (Goldman), Питер Малота (Amnon), Шэрон Раджиньяно (Bassam), Сами Хёри (Lieutenant Itsik)
Описание:
Неутомимый искатель приключений Руди Кафмайер, промышляющий добычей уникальных произведений искусства и редкостных диковин для богатых коллекционеров, отправляется в Израиль на поиски своего пропавшего отца, составлявшего летопись древней таинственной секты «Орден».
В Иерусалиме за авантюристом со скандальной репутацией сразу начинают охотиться наемные убийцы и полиция во главе с отважной Далией Барр, которая не раз спасет Руди жизнь во время головокружительных погонь и бешеных перестрелок на узких улочках древнего города, прежде чем ему удастся разоблачить глобальный заговор безумного главаря «Ордена» стремящегося начать новую Священную войну и установить на Земле Влacть крови и террора.
Рейтинг:

Качество: BDRip 720p / / 60fps
Формат: MKV
Видео кодек: AVC
Аудио кодек:AC3
Видео: AVC, 1280x696 (16:9), 5688 kbps, 60 fps, 0,106 bpp
Аудио: русский / AC3 / 2.0 / 48 kHz / 384 kbps / 16 bit ||
General
Unique ID : 208064369345620379234834876560483825784 (0x9C87BD6BF089A8C281B967B35F383878)
Complete name : E:\Jean-Claude Van Damme ( Part 2)\The Order (2001).720p.(60 Fps).mkv
Format : Matroska
Format version : Version 4 / Version 2
File size : 3.86 GiB
Duration : 1h 29mn
Overall bit rate : 6 196 Kbps
Movie name : Тайна ордена / The Order (2001) BDRip 720p от R.G. HD-Films | 60 fps
Encoded date : UTC 2015-11-26 07:35:30
Writing application : mkvmerge v6.2.0 ('Promised Land') built on Apr 28 2013 12:22:01
Writing library : libebml v1.3.0 + libmatroska v1.4.0

Video
ID : 1
Format : AVC
Format/Info : Advanced Video Codec
Format profile : Main@L4.1
Format settings, CABAC : Yes
Format settings, ReFrames : 4 frames
Codec ID : V_MPEG4/ISO/AVC
Duration : 1h 29mn
Bit rate : 5 689 Kbps
Width : 1 280 pixels
Height : 696 pixels
Display aspect ratio : 16:9
Frame rate : 60.000 fps
Color space : YUV
Chroma subsampling : 4:2:0
Bit depth : 8 bits
Scan type : Progressive
Bits/(Pixel*Frame) : 0.106
Stream size : 3.55 GiB (92%)
Title : slaventi-69 ( R.G. HD-Films | 60 fps )
Writing library : x264 core 130 r2273 b3065e6
Encoding settings : cabac=1 / ref=4 / deblock=1:0:0 / analyse=0x1:0x111 / me=umh / subme=9 / psy=1 / psy_rd=1.00:0.00 / mixed_ref=1 / me_range=24 / chroma_me=1 / trellis=2 / 8x8dct=0 / cqm=0 / deadzone=21,11 / fast_pskip=1 / chroma_qp_offset=-2 / threads=8 / lookahead_threads=1 / sliced_threads=0 / nr=0 / decimate=1 / interlaced=0 / bluray_compat=0 / constrained_intra=0 / bframes=4 / b_pyramid=2 / b_adapt=2 / b_bias=0 / direct=1 / weightb=1 / open_gop=0 / weightp=2 / keyint=250 / keyint_min=25 / scenecut=40 / intra_refresh=0 / rc_lookahead=40 / rc=crf / mbtree=1 / crf=15.5 / qcomp=0.60 / qpmin=0 / qpmax=69 / qpstep=4 / ip_ratio=1.40 / aq=1:1.00
Language : English
Default : Yes
Forced : No

Audio
ID : 2
Format : AC-3
Format/Info : Audio Coding 3
Mode extension : CM (complete main)
Codec ID : A_AC3
Duration : 1h 29mn
Bit rate mode : Constant
Bit rate : 384 Kbps
Channel(s) : 2 channels
Channel positions : Front: L R
Sampling rate : 48.0 KHz
Bit depth : 16 bits
Compression mode : Lossy
Stream size : 245 MiB (6%)
Title : MVO
Language : Russian
Default : Yes
Forced : No
скриншот   скриншот   скриншот   скриншот  
Репликант / Replicant
Год выпуска: 2001
Страна: США
Жанр: фантастика, боевик, триллер

Продолжительность: 01:40:55
Перевод: Дубляж
Режиссер: Ринго Лам
В ролях: Жан-Клод Ван Дамм (Replicant / Edward Garrotte), Майкл Рукер (Det. Jake Riley), Катрин Дент (Angie), Брэндон Джеймс Олсон (Danny), Пэм Хайатт (Mrs. Riley), Йен Робисан (Stan Reisman), Аллан Грэй (Roarke), Джеймс Хатсон (Snotty Concierge), Джейми Нокс (Wendy Wyckham), Пол МакДжиллион (Captain), Крис Келли (Chris), Питер Флемминг (Paul)
Описание:
Полиция сбилась с ног, разыскивая серийного убийцу, совершившего более десятка нападений на одиноких матерей с детьми. Безжалостный маньяк оставляет на месте преступления всегда одно и то же - истерзанный и сожженный труп женщины и практически никаких улик, позволяющих выйти на его след. На помощь полиции приходит национальная служба безопасности, по заданию которой ученые, используя один-единственный волос убийцы, найденный на месте преступления, создали его генетического двойника - репликанта.
Специалисты полагают, что клон, благодаря генетической памяти, способен вывести их на след оригинала. Провести операцию поручают полицейскому Джейку, который долго и безуспешно преследовал маньяка и даже стал его личным врагом. Сможет ли Джейк с помощью своего подопечного - репликанта - найти и обезвредить опасного преступника или же «голос крови» победит и в городе появится еще один близнец-убийца?...
Рейтинг:

Качество: BDRip 720p / / 60fps
Формат: MKV
Видео кодек: AVC
Аудио кодек:AC3
Видео: AVC, 1280x720 (16:9), 4793 kbps, 60 fps, 0,087 bpp
Аудио: русский / AC3 / 5.1 / 48 kHz / 384 kbps / 16 bit ||
General
Unique ID : 240111213463612799624435984013672733475 (0xB4A3BCD34E52057B90BF021A1BD65B23)
Complete name : E:\Jean-Claude Van Damme ( Part 2)\Replicant (2001).720p.(60 Fps).mkv
Format : Matroska
Format version : Version 4 / Version 2
File size : 3.72 GiB
Duration : 1h 40mn
Overall bit rate : 5 283 Kbps
Movie name : Репликант / Replicant (2001) BDRip 720p от R.G. HD-Films | 60 fps
Encoded date : UTC 2015-11-26 07:45:02
Writing application : mkvmerge v6.2.0 ('Promised Land') built on Apr 28 2013 12:22:01
Writing library : libebml v1.3.0 + libmatroska v1.4.0

Video
ID : 1
Format : AVC
Format/Info : Advanced Video Codec
Format profile : Main@L4.1
Format settings, CABAC : Yes
Format settings, ReFrames : 4 frames
Codec ID : V_MPEG4/ISO/AVC
Duration : 1h 40mn
Bit rate : 4 794 Kbps
Width : 1 280 pixels
Height : 720 pixels
Display aspect ratio : 16:9
Frame rate : 60.000 fps
Color space : YUV
Chroma subsampling : 4:2:0
Bit depth : 8 bits
Scan type : Progressive
Bits/(Pixel*Frame) : 0.087
Stream size : 3.38 GiB (91%)
Title : slaventi-69 ( R.G. HD-Films | 60 fps )
Writing library : x264 core 130 r2273 b3065e6
Encoding settings : cabac=1 / ref=4 / deblock=1:0:0 / analyse=0x1:0x111 / me=umh / subme=9 / psy=1 / psy_rd=1.00:0.00 / mixed_ref=1 / me_range=24 / chroma_me=1 / trellis=2 / 8x8dct=0 / cqm=0 / deadzone=21,11 / fast_pskip=1 / chroma_qp_offset=-2 / threads=8 / lookahead_threads=1 / sliced_threads=0 / nr=0 / decimate=1 / interlaced=0 / bluray_compat=0 / constrained_intra=0 / bframes=4 / b_pyramid=2 / b_adapt=2 / b_bias=0 / direct=1 / weightb=1 / open_gop=0 / weightp=2 / keyint=250 / keyint_min=25 / scenecut=40 / intra_refresh=0 / rc_lookahead=40 / rc=crf / mbtree=1 / crf=15.5 / qcomp=0.60 / qpmin=0 / qpmax=69 / qpstep=4 / ip_ratio=1.40 / aq=1:1.00
Language : English
Default : Yes
Forced : No

Audio
ID : 2
Format : AC-3
Format/Info : Audio Coding 3
Mode extension : CM (complete main)
Codec ID : A_AC3
Duration : 1h 40mn
Bit rate mode : Constant
Bit rate : 384 Kbps
Channel(s) : 6 channels
Channel positions : Front: L C R, Side: L R, LFE
Sampling rate : 48.0 KHz
Bit depth : 16 bits
Compression mode : Lossy
Stream size : 277 MiB (7%)
Title : Dub (DVD R5)
Language : Russian
Default : Yes
Forced : No
скриншот   скриншот   скриншот   скриншот  
В аду / In Hell
Год выпуска: 2003
Страна: США
Жанр: боевик, триллер, драма

Продолжительность: 01:28:14
Перевод: Дубляж
Режиссер: Ринго Лам
В ролях: Жан-Клод Ван Дамм (Kyle LeBlanc), Лоуренс Тейлор (451), Ллойд Баттиста (General Hruschov), Карлос Гомес (Tolik), Манол Манолов (Ivan), Крис Мойр (Billy), Билли Рик (Coolhand), Калойан Воденичаров (Dima), Алан Дэвидсон (Malakai), Веселин Калановский (Sasha), Иво Тончев (Marko), Хуан Фернандес (Shubka)
Описание:
Здесь сложно выжить, а остаться человеком почти невозможно. Жестоко расправившись с убийцей своей жены, американец Кайл, работающий в России, оказывается в легендарной тюрьме «Кровавая», куда боятся попасть даже самые крутые бандиты и бывалые рецидивисты. Здесь надзиратели - изощренные садисты, а начальство - продажное зверье, устраивающее кровавые бои между заключенными. Но, потеряв на чужой земле любовь, будущее и свободу, Кайл не намерен сгинуть в этой проклятой дыре. Он будет отчаянно бороться за свою жизнь, чтобы однажды выбраться из настоящего ада на Земле, где выживают только сильнейшие.
Рейтинг:

Качество: BDRip 720p / / 60fps
Формат: MKV
Видео кодек: AVC
Аудио кодек:AC3
Видео: AVC, 1280x688 (1.860), 6475 kbps, 60 fps, 0,123 bpp
Аудио: русский / AC3 / 5.1 / 48 kHz / 384 kbps / 16 bit ||
General
Unique ID : 187422690745150796949737925608933348223 (0x8D004C17AECE81D38A6F07B23C56D37F)
Complete name : E:\Jean-Claude Van Damme ( Part 2)\In Hell (2003).720p.(60 Fps).mkv
Format : Matroska
Format version : Version 4 / Version 2
File size : 4.31 GiB
Duration : 1h 28mn
Overall bit rate : 6 999 Kbps
Movie name : В аду / In Hell (2003) BDRip 720p от R.G. HD-Films | 60 fps
Encoded date : UTC 2016-04-19 14:16:33
Writing application : mkvmerge v6.2.0 ('Promised Land') built on Apr 28 2013 12:22:01
Writing library : libebml v1.3.0 + libmatroska v1.4.0

Video
ID : 1
Format : AVC
Format/Info : Advanced Video Codec
Format profile : Main@L4.1
Format settings, CABAC : Yes
Format settings, ReFrames : 4 frames
Codec ID : V_MPEG4/ISO/AVC
Duration : 1h 28mn
Bit rate : 6 476 Kbps
Width : 1 280 pixels
Height : 688 pixels
Display aspect ratio : 1.860
Frame rate : 60.000 fps
Color space : YUV
Chroma subsampling : 4:2:0
Bit depth : 8 bits
Scan type : Progressive
Bits/(Pixel*Frame) : 0.123
Stream size : 3.99 GiB (93%)
Title : slaventi-69 ( R.G. HD-Films | 60 fps )
Writing library : x264 core 130 r2273 b3065e6
Encoding settings : cabac=1 / ref=4 / deblock=1:0:0 / analyse=0x1:0x111 / me=umh / subme=9 / psy=1 / psy_rd=1.00:0.00 / mixed_ref=1 / me_range=28 / chroma_me=1 / trellis=2 / 8x8dct=0 / cqm=0 / deadzone=21,11 / fast_pskip=1 / chroma_qp_offset=-2 / threads=8 / lookahead_threads=1 / sliced_threads=0 / nr=0 / decimate=1 / interlaced=0 / bluray_compat=0 / constrained_intra=0 / bframes=4 / b_pyramid=2 / b_adapt=2 / b_bias=0 / direct=1 / weightb=1 / open_gop=0 / weightp=2 / keyint=250 / keyint_min=25 / scenecut=40 / intra_refresh=0 / rc_lookahead=40 / rc=crf / mbtree=1 / crf=16.5 / qcomp=0.60 / qpmin=0 / qpmax=69 / qpstep=4 / ip_ratio=1.40 / aq=1:1.00
Language : English
Default : Yes
Forced : No

Audio
ID : 2
Format : AC-3
Format/Info : Audio Coding 3
Mode extension : CM (complete main)
Codec ID : A_AC3
Duration : 1h 28mn
Bit rate mode : Constant
Bit rate : 384 Kbps
Channel(s) : 6 channels
Channel positions : Front: L C R, Side: L R, LFE
Sampling rate : 48.0 KHz
Bit depth : 16 bits
Compression mode : Lossy
Stream size : 242 MiB (5%)
Title : MVO R5
Language : Russian
Default : Yes
Forced : No
скриншот   скриншот   скриншот   скриншот  
Пробуждение смерти / Wake of Death
Год выпуска: 2004
Страна: Великобритания, Германия, Франция, ЮАР
Жанр: боевик, криминал

Продолжительность: 01:30:29
Перевод: Профессиональный (двухголосый)
Режиссер: Филиппе Мартинес
В ролях: Жан-Клод Ван Дамм (Ben Archer), Саймон Ям (Sun Quan), Филип Тан (Han), Валери Тиан (Kim), Тони Шина (Tony), Клод Эрнандес (Raymond), Лиза Кинг (Cynthia Archer), Энтони Фриджон (Max), Дэнни Кеог (Mac Hoggins), Пьер Маре (Nicholas Archer), Уоррик Грайр (Da Costa), Том Ву (Andy Wang)
Описание:
Планы бывалого гангстера Бена Арчера уйти на покой внезапно срываются, когда его жена решает на время приютить юную беглянку из Азии. Арчеры не подозревают, что Ким - дочь могущественного босса китайской триады Сун Куана, на поиски которой он бросил своих головорезов.
Обнаружив ее следы в Америке, Сун Куан устраняет всех на своем пути, и хотя Ким и сын Арчера спасаются, его супруга погибает. Отныне в жизни Бена есть единственная цель - беспощадная месть...
Рейтинг:

Качество: BDRip 720p / / 60fps
Формат: MKV
Видео кодек: AVC
Аудио кодек:AC3
Видео: AVC, 1280x720 (16:9), 5128 kbps, 60 fps, 0,093 bpp
Аудио: русский / AC3 / 5.1 / 48 kHz / 384 kbps / 16 bit ||
General
Unique ID : 215043287828971700885456240321505290143 (0xA1C7D4AB2CE9DA328D795151ECBC679F)
Complete name : E:\Jean-Claude Van Damme ( Part 2)\Wake of Death (2004).720p.(60 Fps).mkv
Format : Matroska
Format version : Version 4 / Version 2
File size : 3.56 GiB
Duration : 1h 30mn
Overall bit rate : 5 625 Kbps
Movie name : Пробуждение смерти / Wake of Death (2004) BDRip 720p от R.G. HD-Films | 60 fps
Encoded date : UTC 2015-11-26 07:51:07
Writing application : mkvmerge v6.2.0 ('Promised Land') built on Apr 28 2013 12:22:01
Writing library : libebml v1.3.0 + libmatroska v1.4.0

Video
ID : 1
Format : AVC
Format/Info : Advanced Video Codec
Format profile : Main@L4.1
Format settings, CABAC : Yes
Format settings, ReFrames : 4 frames
Codec ID : V_MPEG4/ISO/AVC
Duration : 1h 30mn
Bit rate : 5 129 Kbps
Width : 1 280 pixels
Height : 720 pixels
Display aspect ratio : 16:9
Frame rate : 60.000 fps
Color space : YUV
Chroma subsampling : 4:2:0
Bit depth : 8 bits
Scan type : Progressive
Bits/(Pixel*Frame) : 0.093
Stream size : 3.24 GiB (91%)
Title : slaventi-69 ( R.G. HD-Films | 60 fps )
Writing library : x264 core 130 r2273 b3065e6
Encoding settings : cabac=1 / ref=4 / deblock=1:0:0 / analyse=0x1:0x111 / me=umh / subme=9 / psy=1 / psy_rd=1.00:0.00 / mixed_ref=1 / me_range=32 / chroma_me=1 / trellis=2 / 8x8dct=0 / cqm=0 / deadzone=21,11 / fast_pskip=1 / chroma_qp_offset=-2 / threads=8 / lookahead_threads=1 / sliced_threads=0 / nr=0 / decimate=1 / interlaced=0 / bluray_compat=0 / constrained_intra=0 / bframes=4 / b_pyramid=2 / b_adapt=2 / b_bias=0 / direct=1 / weightb=1 / open_gop=0 / weightp=2 / keyint=250 / keyint_min=25 / scenecut=40 / intra_refresh=0 / rc_lookahead=40 / rc=crf / mbtree=1 / crf=16.0 / qcomp=0.60 / qpmin=0 / qpmax=69 / qpstep=4 / ip_ratio=1.40 / aq=1:1.00
Language : English
Default : Yes
Forced : No

Audio
ID : 2
Format : AC-3
Format/Info : Audio Coding 3
Mode extension : CM (complete main)
Codec ID : A_AC3
Duration : 1h 30mn
Bit rate mode : Constant
Bit rate : 384 Kbps
Channel(s) : 6 channels
Channel positions : Front: L C R, Side: L R, LFE
Sampling rate : 48.0 KHz
Bit depth : 16 bits
Compression mode : Lossy
Stream size : 249 MiB (7%)
Title : DVO
Language : Russian
Default : Yes
Forced : No
скриншот   скриншот   скриншот   скриншот  
До смерти / Until Death
Год выпуска: 2007
Страна: Великобритания, Болгария, Германия, США
Жанр: боевик, триллер, драма

Продолжительность: 01:46:41
Перевод: Профессиональный (двухголосый)
Режиссер: Саймон Феллоуз
В ролях: Жан-Клод Ван Дамм (Anthony Stowe), Селина Джиллз (Valerie Stowe), Марк Даймонд (Mark Rossini), Уильям Эш (Serge), Стивен Лорд (Jimmy Medina), Гари Бидл (Mac), С. Джерод Харрис (Ross), Уэс Робинсон (Chad Mansen), Стивен Ри (Gabriel Callaghan), Баффи Дэвис (Jane), Алана Мария (Clementine), Фиона О’Шонесси (Lucy)
Описание:
Энтони Стоу, лейтенант наркоотдела, пристрастившийся к героину, имеет плохую репутацию, ненависть окружающих, включая супругу, с которой разводится... Его бывший партнёр, Гэбриэль Каллахан, стремится к власти над организованной преступностью. Каллахан посылает людей, чтобы убить Стоу. Энтони получает ранение и впадает в кому. Но через месяцы он восстаёт, с одной целью: покончить с бывшим партнёром...
Рейтинг:

Качество: BDRip 720p / / 60fps
Формат: MKV
Видео кодек: AVC
Аудио кодек:AC3
Видео: AVC, 1280x720 (16:9), 5222 kbps, 60 fps, 0,094 bpp
Аудио: русский / AC3 / 5.1 / 48 kHz / 384 kbps / 16 bit ||
General
Unique ID : 205855892311794413256268209667440743511 (0x9ADE6718DDD833FBB142B8953F419457)
Complete name : E:\Jean-Claude Van Damme ( Part 2)\Until Death(2007).720p.(60 Fps).mkv
Format : Matroska
Format version : Version 4 / Version 2
File size : 4.26 GiB
Duration : 1h 46mn
Overall bit rate : 5 720 Kbps
Movie name : До смерти / Until Death (2007) BDRip 720p от R.G. HD-Films | 60 fps
Encoded date : UTC 2015-11-29 14:05:48
Writing application : mkvmerge v6.2.0 ('Promised Land') built on Apr 28 2013 12:22:01
Writing library : libebml v1.3.0 + libmatroska v1.4.0

Video
ID : 1
Format : AVC
Format/Info : Advanced Video Codec
Format profile : Main@L4.1
Format settings, CABAC : Yes
Format settings, ReFrames : 4 frames
Codec ID : V_MPEG4/ISO/AVC
Duration : 1h 46mn
Bit rate : 5 222 Kbps
Width : 1 280 pixels
Height : 720 pixels
Display aspect ratio : 16:9
Frame rate : 60.000 fps
Color space : YUV
Chroma subsampling : 4:2:0
Bit depth : 8 bits
Scan type : Progressive
Bits/(Pixel*Frame) : 0.094
Stream size : 3.89 GiB (91%)
Title : slaventi-69 ( R.G. HD-Films | 60 fps )
Writing library : x264 core 130 r2273 b3065e6
Encoding settings : cabac=1 / ref=4 / deblock=1:0:0 / analyse=0x1:0x111 / me=umh / subme=9 / psy=1 / psy_rd=1.00:0.00 / mixed_ref=1 / me_range=28 / chroma_me=1 / trellis=2 / 8x8dct=0 / cqm=0 / deadzone=21,11 / fast_pskip=1 / chroma_qp_offset=-2 / threads=8 / lookahead_threads=1 / sliced_threads=0 / nr=0 / decimate=1 / interlaced=0 / bluray_compat=0 / constrained_intra=0 / bframes=4 / b_pyramid=2 / b_adapt=2 / b_bias=0 / direct=1 / weightb=1 / open_gop=0 / weightp=2 / keyint=250 / keyint_min=25 / scenecut=40 / intra_refresh=0 / rc_lookahead=40 / rc=crf / mbtree=1 / crf=15.5 / qcomp=0.60 / qpmin=0 / qpmax=69 / qpstep=4 / ip_ratio=1.40 / aq=1:1.00
Language : English
Default : Yes
Forced : No

Audio
ID : 2
Format : AC-3
Format/Info : Audio Coding 3
Mode extension : CM (complete main)
Codec ID : A_AC3
Duration : 1h 46mn
Bit rate mode : Constant
Bit rate : 384 Kbps
Channel(s) : 6 channels
Channel positions : Front: L C R, Side: L R, LFE
Sampling rate : 48.0 KHz
Bit depth : 16 bits
Compression mode : Lossy
Stream size : 293 MiB (7%)
Title : DVO
Language : Russian
Default : Yes
Forced : No
скриншот   скриншот   скриншот   скриншот  
Игры киллеров / Assassination Games
Год выпуска: 2011
Страна: США, Румыния
Жанр: боевик, триллер

Продолжительность: 01:39:46
Перевод: Дубляж
Режиссер: Эрни Барбараш
В ролях: Жан-Клод Ван Дамм (Vincent Brazil), Скотт Эдкинс (Roland Flint), Айван Кэй (Polo Yakur), Валентин Теодосию (Blanchard), Алин Панк (Kovacs), Кевин Чэпмен (Culley), Шербан Челя (Wilson Herrod), Майкл Хиггс (Godfrey), Кристофер Ван Варенберг (Schell), Мария Каран (October), Бьянка Бриджитт ВанДамм (Anna Flint), Эндрю Френч (Nalbandian)
Описание:
Роланд Флинт и Винсент Брэйзил - отъявленные наёмники, мастера восточных единоборств и гуру военного искусства. Винсент специализируется на холодном оружии, в то время, как Роланд является первоклассным стрелком. Они не знакомы друг другу, но вскоре им предстоит создать непростой альянс и колоритный тандем.
В один прекрасный день двум профессионалам поручили задание - любой ценой уничтожить наркокартель, заполонившую всю округу «товаром», а вместе с тем - убрать её всесильного босса, покрываемого управлением по борьбе с наркотиками.
Однако, за простой, с первого взгляда, миссией кроется предательство, подстава и тёмные проделки влиятельных лиц и воротил преступного мира, объявивших охоту на самих наёмников. Теперь крутым ребятам придётся на собственной шкуре ощутить, что значит быть жертвой и постоянно оглядываться назад. Война начинается и кровопролитной битвы не избежать...
Рейтинг:

Качество: BDRip 720p / / 60fps
Формат: MKV
Видео кодек: AVC
Аудио кодек:AC3
Видео: AVC, 1280x720 (16:9), 5509 kbps, 60 fps, 0,100 bpp
Аудио: русский / AC3 / 5.1 / 48 kHz / 384 kbps / 16 bit ||
General
Unique ID : 227101776468690625500617267496241502308 (0xAADA360F65F44720842DFC83FACE9864)
Complete name : E:\Jean-Claude Van Damme ( Part 2)\Assassination Games (2011).720p.(60 Fps).mkv
Format : Matroska
Format version : Version 4 / Version 2
File size : 4.11 GiB
Duration : 1h 39mn
Overall bit rate : 5 896 Kbps
Movie name : Игры киллеров / Assassination Games (2011) BDRip 720p от R.G. HD-Films | 60 fps
Encoded date : UTC 2015-11-29 14:29:48
Writing application : mkvmerge v6.2.0 ('Promised Land') built on Apr 28 2013 12:22:01
Writing library : libebml v1.3.0 + libmatroska v1.4.0

Video
ID : 1
Format : AVC
Format/Info : Advanced Video Codec
Format profile : Main@L4.1
Format settings, CABAC : Yes
Format settings, ReFrames : 4 frames
Codec ID : V_MPEG4/ISO/AVC
Duration : 1h 39mn
Bit rate : 5 509 Kbps
Width : 1 280 pixels
Height : 720 pixels
Display aspect ratio : 16:9
Frame rate : 60.000 fps
Color space : YUV
Chroma subsampling : 4:2:0
Bit depth : 8 bits
Scan type : Progressive
Bits/(Pixel*Frame) : 0.100
Stream size : 3.76 GiB (91%)
Title : slaventi-69 ( R.G. HD-Films | 60 fps )
Writing library : x264 core 130 r2273 b3065e6
Encoding settings : cabac=1 / ref=4 / deblock=1:0:0 / analyse=0x1:0x111 / me=umh / subme=9 / psy=1 / psy_rd=1.00:0.00 / mixed_ref=1 / me_range=26 / chroma_me=1 / trellis=2 / 8x8dct=0 / cqm=0 / deadzone=21,11 / fast_pskip=1 / chroma_qp_offset=-2 / threads=8 / lookahead_threads=1 / sliced_threads=0 / nr=0 / decimate=1 / interlaced=0 / bluray_compat=0 / constrained_intra=0 / bframes=4 / b_pyramid=2 / b_adapt=2 / b_bias=0 / direct=3 / weightb=1 / open_gop=0 / weightp=2 / keyint=250 / keyint_min=25 / scenecut=40 / intra_refresh=0 / rc_lookahead=40 / rc=2pass / mbtree=1 / bitrate=5509 / ratetol=1.0 / qcomp=0.60 / qpmin=0 / qpmax=69 / qpstep=4 / cplxblur=20.0 / qblur=0.5 / ip_ratio=1.40 / aq=1:1.00
Language : English
Default : Yes
Forced : No

Audio
ID : 2
Format : AC-3
Format/Info : Audio Coding 3
Mode extension : CM (complete main)
Codec ID : A_AC3
Duration : 1h 39mn
Bit rate mode : Constant
Bit rate : 384 Kbps
Channel(s) : 6 channels
Channel positions : Front: L C R, Side: L R, LFE
Sampling rate : 48.0 KHz
Bit depth : 16 bits
Compression mode : Lossy
Stream size : 274 MiB (7%)
Title : Dub
Language : Russian
Default : Yes
Forced : No
скриншот   скриншот   скриншот   скриншот  
Просьба к переливающим на другие сайты, в оформлении указывайте пожалуйста авторство рипа slaventi-69
Близкие враги / Enemies Closer
Год выпуска: 2013
Страна: США, Канада
Жанр: боевик, триллер
Продолжительность: 01:24:50
Перевод: Профессиональный (двухголосый)

Режиссер: Питер Хайамс

В ролях: Том Эверетт Скотт, Жан-Клод Ван Дамм, Орландо Джонс, Линзи Коккер, Кристофер Робби, Захари Бахаров, Димо Алексиев, Кристофер Ван Варенберг, Владо Мажанаов, Теодор Цолов

Описание: Двум заклятым врагам, столкнувшимся в лесу на американо-канадской границе, приходится объединиться в борьбе против наркокурьеров, желающих любой ценой вернуть свой потерянный груз.

Качество: BDRip 720p / 60 FPS
Формат: MKV
Видео кодек: H.264
Аудио кодек: AC3
Видео: x264, 1280 x 536 (2,40:1), 3359 kbps, 60,000 fps, ( 0.082 bpp)
Аудио#1: Русский, AC-3, 48.0 KHz, 6 ch, 384 Kbps

x264 [info]: frame I:2296 Avg QP:12.54 size: 72594
x264 [info]: frame P:70374 Avg QP:15.83 size: 16980
x264 [info]: frame B:232431 Avg QP:20.92 size: 3329
x264 [info]: consecutive B-frames: 2.2% 1.5% 8.2% 11.1% 77.0%

Общее
Уникальный идентификатор : 231785222746026202529648381956347022646 (0xAE6035CA1DD5EAE69B9DAF2EB4BA4D36)
Полное имя : E:\Jean-Claude Van Damme ( Part 2)\Enemies_Closer.(2013).BDRip.720p.(60 Fps).mkv
Формат : Matroska
Версия формата : Version 4 / Version 2
Размер файла : 2,22 Гбайт
Продолжительность : 1 ч. 24 м.
Общий поток : 3747 Кбит/сек
Название фильма : Близкие враги / Enemies Closer (2013) BDRip 720p (60 Fps)
Дата кодирования : UTC 2017-06-26 11:20:07
Программа кодирования : mkvmerge v9.1.0 ('Little Earthquakes') 64bit
Библиотека кодирования : libebml v1.3.3 + libmatroska v1.4.4

Видео
Идентификатор : 1
Формат : AVC
Формат/Информация : Advanced Video Codec
Профиль формата : High@L4.1
Параметр CABAC формата : Да
Параметр ReFrames формата : 4 кадра
Идентификатор кодека : V_MPEG4/ISO/AVC
Продолжительность : 1 ч. 24 м.
Битрейт : 3359 Кбит/сек
Ширина : 1280 пикселей
Высота : 536 пикселей
Соотношение сторон : 2,40:1
Режим частоты кадров : Постоянный
Частота кадров : 60,000 кадров/сек
Цветовое пространство : YUV
Субдискретизация насыщенности : 4:2:0
Битовая глубина : 8 бит
Тип развёртки : Прогрессивная
Бит/(Пиксели*Кадры) : 0.082
Размер потока : 1,99 Гбайт (90%)
Заголовок : slaventi-69 ( R.G. HD-Films | 60 fps )
Библиотека кодирования : x264 core 130 r2273 b3065e6
Настройки программы : cabac=1 / ref=4 / deblock=1:0:0 / analyse=0x3:0x113 / me=umh / subme=9 / psy=1 / psy_rd=1.00:0.00 / mixed_ref=1 / me_range=24 / chroma_me=1 / trellis=2 / 8x8dct=1 / cqm=0 / deadzone=21,11 / fast_pskip=1 / chroma_qp_offset=-2 / threads=10 / lookahead_threads=1 / sliced_threads=0 / nr=0 / decimate=1 / interlaced=0 / bluray_compat=0 / constrained_intra=0 / bframes=4 / b_pyramid=2 / b_adapt=2 / b_bias=0 / direct=3 / weightb=1 / open_gop=0 / weightp=2 / keyint=250 / keyint_min=25 / scenecut=40 / intra_refresh=0 / rc_lookahead=50 / rc=crf / mbtree=1 / crf=15.3 / qcomp=0.60 / qpmin=0 / qpmax=69 / qpstep=4 / ip_ratio=1.40 / aq=1:1.00
Язык : English
Default : Да
Forced : Нет

Аудио
Идентификатор : 2
Формат : AC-3
Формат/Информация : Audio Coding 3
Параметр Endianness формата : Big
Идентификатор кодека : A_AC3
Продолжительность : 1 ч. 24 м.
Вид битрейта : Постоянный
Битрейт : 384 Кбит/сек
Каналы : 6 каналов
Расположение каналов : Front: L C R, Side: L R, LFE
Частота : 48,0 КГц
Частота кадров : 31,250 кадров/сек (1536 spf)
Битовая глубина : 16 бит
Метод сжатия : С потерями
Размер потока : 233 Мбайт (10%)
Заголовок : DVO (Пиратская студия)
Язык : Russian
ServiceKind/String : Complete Main
Default : Да
Forced : Нет

Зной / Swelter
Год выпуска: 2014
Страна: США / Exchange Peaks Film Capital, Film Invaders
Жанр: боевик, триллер, драма
Продолжительность: 01:36:01
Перевод: Авторский одноголосый Дмитрий Есарев

Режиссер: Кит Пармер

В ролях: Ленни Джеймс, Грант Боулер, Каталина Сандино Морено, Альфред Молина, Джош Хендерсон, Жан-Клод Ван Дамм, Минди Робинсон, Фрея Тингли, Брэд Картер, Эбби Миллер

Описание: История о четырех сбежавших заключенных, которые прибывают в пыльный, маленький городок Калифорнии, где стоит невыносимая жара. Беглецы ищут пятого сбежавшего, который скрылся с $10 миллионами наличными.

Качество: BDRip 720p / 60 FPS
Формат: MKV
Видео кодек: H.264
Аудио кодек: AC3
Видео: x264, 1280 x 536 (2,40:1), 3976 kbps, 60,000 fps, ( 0.097 bpp)
Аудио#1: Русский, AC-3, 48.0 KHz, 6 ch, 384 Kbps

x264 [info]: frame I:2277 Avg QP:13.47 size: 78957
x264 [info]: frame P:85101 Avg QP:16.65 size: 19869
x264 [info]: frame B:258278 Avg QP:20.44 size: 3844
x264 [info]: consecutive B-frames: 2.4% 2.5% 10.1% 25.0% 60.0%

Общее
Уникальный идентификатор : 172159198167698762080425503516799683597 (0x8184A7CE8A032447BEA4DD167B064C0D)
Полное имя : E:\Jean-Claude Van Damme ( Part 2)\Swelter.(2014).BDRip.720p.(60 Fps).mkv
Формат : Matroska
Версия формата : Version 4 / Version 2
Размер файла : 2,93 Гбайт
Продолжительность : 1 ч. 36 м.
Общий поток : 4360 Кбит/сек
Название фильма : Зной / Swelter (2014) BDRip 720p (60 Fps)
Дата кодирования : UTC 2017-06-26 11:10:47
Программа кодирования : mkvmerge v9.1.0 ('Little Earthquakes') 64bit
Библиотека кодирования : libebml v1.3.3 + libmatroska v1.4.4

Видео
Идентификатор : 1
Формат : AVC
Формат/Информация : Advanced Video Codec
Профиль формата : High@L4.1
Параметр CABAC формата : Да
Параметр ReFrames формата : 4 кадра
Идентификатор кодека : V_MPEG4/ISO/AVC
Продолжительность : 1 ч. 36 м.
Битрейт : 3976 Кбит/сек
Ширина : 1280 пикселей
Высота : 536 пикселей
Соотношение сторон : 2,40:1
Режим частоты кадров : Постоянный
Частота кадров : 60,000 кадров/сек
Цветовое пространство : YUV
Субдискретизация насыщенности : 4:2:0
Битовая глубина : 8 бит
Тип развёртки : Прогрессивная
Бит/(Пиксели*Кадры) : 0.097
Размер потока : 2,67 Гбайт (91%)
Заголовок : slaventi-69 ( R.G. HD-Films | 60 fps )
Библиотека кодирования : x264 core 130 r2273 b3065e6
Настройки программы : cabac=1 / ref=4 / deblock=1:0:0 / analyse=0x3:0x113 / me=umh / subme=9 / psy=1 / psy_rd=1.00:0.00 / mixed_ref=1 / me_range=24 / chroma_me=1 / trellis=2 / 8x8dct=1 / cqm=0 / deadzone=21,11 / fast_pskip=1 / chroma_qp_offset=-2 / threads=8 / lookahead_threads=1 / sliced_threads=0 / nr=0 / decimate=1 / interlaced=0 / bluray_compat=0 / constrained_intra=0 / bframes=4 / b_pyramid=2 / b_adapt=2 / b_bias=0 / direct=3 / weightb=1 / open_gop=0 / weightp=2 / keyint=250 / keyint_min=25 / scenecut=40 / intra_refresh=0 / rc_lookahead=50 / rc=crf / mbtree=1 / crf=15.0 / qcomp=0.60 / qpmin=0 / qpmax=69 / qpstep=4 / ip_ratio=1.40 / aq=1:1.00
Язык : English
Default : Да
Forced : Нет

Аудио
Идентификатор : 2
Формат : AC-3
Формат/Информация : Audio Coding 3
Параметр Endianness формата : Big
Идентификатор кодека : A_AC3
Продолжительность : 1 ч. 36 м.
Вид битрейта : Постоянный
Битрейт : 384 Кбит/сек
Каналы : 6 каналов
Расположение каналов : Front: L C R, Side: L R, LFE
Частота : 48,0 КГц
Частота кадров : 31,250 кадров/сек (1536 spf)
Битовая глубина : 16 бит
Метод сжатия : С потерями
Размер потока : 264 Мбайт (9%)
Заголовок : VO Дмитрий Есарев
Язык : Russian
ServiceKind/String : Complete Main
Default : Да
Forced : Нет

Прикончи их всех / Kill'em All
Год выпуска: 2017
Страна: США
Жанр: Боевик
Продолжительность: 01:35:50
Перевод: Профессиональный (многоголосый)

Режиссер: Питер Малота

В ролях: Жан-Клод Ван Дамм, Петер Стормаре, Отем Ризер, Мария Кончита Алонсо, Дэниэл Бернхард, Кристофер Ван Варенберг, Джеймс П. Беннетт, Ганс Марреро, Пол Сэмпсон

Описание: В обычную американскую больницу поступает необычный пациент, находящийся при смерти после массовой перестрелки. Бойня возобновляется, когда по его следу приходит группа вооруженных налетчиков. Оставшейся в живых свидетельнице – молодой медсестре Сюзанне – придется иметь дело с агентами ФБР и участниками международного заговора

Качество: BDRip 720p / 60 FPS
Формат: MKV
Видео кодек: H.264
Аудио кодек: AC3
Видео: x264, 1280 x 536 (2,40:1), 4517 kbps, 60,000 fps, (0.110 bpp)
Аудио#1: Русский, AC-3, 48.0 KHz, 6 ch, 384 Kbps

x264 [info]: frame I:2640 Avg QP:13.51 size: 93484
x264 [info]: frame P:82106 Avg QP:16.62 size: 21458
x264 [info]: frame B:259940 Avg QP:20.82 size: 4752
x264 [info]: consecutive B-frames: 2.6% 2.2% 8.7% 13.5% 73.0%

Общее
Уникальный идентификатор : 224512541681101674140183148595122279029 (0xA8E78AEDD30AD72E9AA21FAFE2501275)
Полное имя : E:\Jean-Claude Van Damme ( Part 2)\Kill'em_All.(2017).BDRip.720p.(60 Fps).mkv
Формат : Matroska
Версия формата : Version 4 / Version 2
Размер файла : 3,28 Гбайт
Продолжительность : 1 ч. 35 м.
Общий поток : 4905 Кбит/сек
Название фильма : Прикончи их всех / Kill'em All (2017) BDRip 720p (60 Fps)
Дата кодирования : UTC 2017-06-26 11:42:52
Программа кодирования : mkvmerge v9.1.0 ('Little Earthquakes') 64bit
Библиотека кодирования : libebml v1.3.3 + libmatroska v1.4.4

Видео
Идентификатор : 1
Формат : AVC
Формат/Информация : Advanced Video Codec
Профиль формата : High@L4.1
Параметр CABAC формата : Да
Параметр ReFrames формата : 4 кадра
Идентификатор кодека : V_MPEG4/ISO/AVC
Продолжительность : 1 ч. 35 м.
Битрейт : 4517 Кбит/сек
Ширина : 1280 пикселей
Высота : 536 пикселей
Соотношение сторон : 2,40:1
Режим частоты кадров : Постоянный
Частота кадров : 60,000 кадров/сек
Цветовое пространство : YUV
Субдискретизация насыщенности : 4:2:0
Битовая глубина : 8 бит
Тип развёртки : Прогрессивная
Бит/(Пиксели*Кадры) : 0.110
Размер потока : 3,02 Гбайт (92%)
Заголовок : slaventi-69 ( R.G. HD-Films | 60 fps )
Библиотека кодирования : x264 core 130 r2273 b3065e6
Настройки программы : cabac=1 / ref=4 / deblock=1:0:0 / analyse=0x3:0x113 / me=umh / subme=9 / psy=1 / psy_rd=1.00:0.00 / mixed_ref=1 / me_range=24 / chroma_me=1 / trellis=2 / 8x8dct=1 / cqm=0 / deadzone=21,11 / fast_pskip=1 / chroma_qp_offset=-2 / threads=10 / lookahead_threads=1 / sliced_threads=0 / nr=0 / decimate=1 / interlaced=0 / bluray_compat=0 / constrained_intra=0 / bframes=4 / b_pyramid=2 / b_adapt=2 / b_bias=0 / direct=3 / weightb=1 / open_gop=0 / weightp=2 / keyint=250 / keyint_min=25 / scenecut=40 / intra_refresh=0 / rc_lookahead=50 / rc=crf / mbtree=1 / crf=15.0 / qcomp=0.60 / qpmin=0 / qpmax=69 / qpstep=4 / ip_ratio=1.40 / aq=1:1.00
Язык : English
Default : Да
Forced : Нет

Аудио
Идентификатор : 2
Формат : AC-3
Формат/Информация : Audio Coding 3
Параметр Endianness формата : Big
Идентификатор кодека : A_AC3
Продолжительность : 1 ч. 35 м.
Вид битрейта : Постоянный
Битрейт : 384 Кбит/сек
Каналы : 6 каналов
Расположение каналов : Front: L C R, Side: L R, LFE
Частота : 48,0 КГц
Частота кадров : 31,250 кадров/сек (1536 spf)
Битовая глубина : 16 бит
Метод сжатия : С потерями
Размер потока : 263 Мбайт (8%)
Заголовок : MVO [License](iTunes)
Язык : Russian
ServiceKind/String : Complete Main
Default : Да
Forced : Нет

pb.wtf



Скачать через торрент http://pic.kartinco.top/images/11/vb7gn.jpg Скачать фильм [Сборник лучших фильмов] Жан-Клод Ван Дамм через торрент бесплантно в хорошем качестве Описание: Передвижения во времени породили новый преступлений. Можно изменять события прошлого, контролировать финансовые рынки и даже ... 9.5 10 21
Info! Золотая раздача, скачанное не засчитывается.
Торрент: Зарегистрирован [2017-06-26 13:39] · скачан: 54 раз
Статус: √ проверено
Размер: 59.93 GB
Как cкачать? Как скачать через торрент | qTorrent

% Раздел Тема Автор DL S | L
Сборники на DVD и Сиквелы [DVDrip, WEB-DLRip, HDrip, BDRip] [ 6.53 GB ] Бэтмен: Начало / Batman Begins / Темный рыцарь / The Dark Knight / Темный рыцарь: Возрождение легенды / The Dark Knight Rises [200520082012 HDRip-AVC] DUB [] IMAX от R.G. PiratFilms Phoenix Скачать
2 | 0
Иностранные мультфильмы [ 1.45 GB ] Как приручить дракона / How to Train Your Dragon [2010 мультфильм HDRip-AVC] от R.G. nICE Films Demonessa Скачать
20 | 0
Фильмы 2012 [ 2.18 GB ] Джон Картер / John Carter [2012 HDRip-AVC] от R.G. nICE Films Phoenix Скачать
1 | 0
Иностранные мультфильмы [ 1.46 GB ] Суперсемейка / The Incredibles [2004 мультфильм HDRip-AVC] DUB [] от R.G. PiratFilms Demonessa Скачать
9 | 0
Иностранные мультфильмы [ 1.46 GB ] Рио / Rio [2011 мультфильм мюзикл HDRip-AVC] DUB [] от R.G. PiratFilms Demonessa Скачать
1 | 0
Фильмы 2001-2005 [ 2.17 GB ] Идальго: Погоня в пустыне / Hidalgo [2004 HDRip-AVC DUB AVO SUB] от R.G. PiratFilms кэп Скачать
1 | 0
Иностранные мультфильмы [ 1.46 GB ] ВАЛЛ·И / WALL·E [2008 мультфильм HDRip-AVC] от R.G. nICE Films Demonessa Скачать
1 | 0


Последний раз редактировалось: slaventi-69 (2017-06-26 13:39), всего редактировалось 3 раз(а)

28-11-2019 20:33  

Отключить всю рекламу на сайте

19-04-2016 17:50 Скачать торрент  

Я дико извиняюсь - а что это? пара фильмов самодельных а-ля 60 fps ??? Не так ли? Есть у меня "Самоловка" в таком качестве - абы што если честно.
вот фильмографии - почти все в DVDrip
http://pb.wtf/topic/34823/?spmode=full#seeders
http://pb.wtf/topic/109795/?spmode=full#seeders
p.s. Более хитовые фильмы сделал бы в 60 fps - тут единственный фильм - В поисках приключений и то 720ppb.wtf



19-04-2016 18:22 Скачать торрент  

nobana писал(а):

Я дико извиняюсь - а что это? пара фильмов самодельных а-ля 60 fps ??? Не так ли? Есть у меня "Самоловка" в таком качестве - абы што если честно.
вот фильмографии - почти все в DVDrip
http://pb.wtf/topic/34823/?spmode=full#seeders
http://pb.wtf/topic/109795/?spmode=full#seeders
p.s. Более хитовые фильмы сделал бы в 60 fps - тут единственный фильм - В поисках приключений и то 720p

Да. Можете дико не извиняться - это "пара" (13 шт.) самодельных а-ля 60 fps.pb.wtf





Последний раз редактировалось: slaventi-69 (2016-04-19 18:23), всего редактировалось 1 раз

19-04-2016 18:28 Скачать торрент  

про некоторые фильмы я и не слышал как раз познакомлюсь,так что спасибоpb.wtf



19-04-2016 19:16 Скачать торрент  

slaventi-69 писал(а):

nobana писал(а):

Я дико извиняюсь - а что это? пара фильмов самодельных а-ля 60 fps ??? Не так ли? Есть у меня "Самоловка" в таком качестве - абы што если честно.
вот фильмографии - почти все в DVDrip
http://pb.wtf/topic/34823/?spmode=full#seeders
http://pb.wtf/topic/109795/?spmode=full#seeders
p.s. Более хитовые фильмы сделал бы в 60 fps - тут единственный фильм - В поисках приключений и то 720p

Да. Можете дико не извиняться - это "пара" (13 шт.) самодельных а-ля 60 fps.

как делаешь? скинь названия прог и инструкцию в личку - сам попробую на досуге...поковыряюсьpb.wtf



09-11-2016 19:18 Скачать торрент  

Раздайте, пожалуйста, Патруль времени и Максимальный риск если у кого естьpb.wtf



15-05-2017 17:35 Скачать торрент  

Тайна Ордена, Репликант... С какого перепуга они лучшими то стали???pb.wtf



15-05-2017 19:43 Скачать торрент  

WarBlast писал(а):

Тайна Ордена, Репликант... С какого перепуга они лучшими то стали???

Репликант наверно последний из лучших фильмовpb.wtf



26-06-2017 13:44 Скачать торрент  

Добавил еще 3 фильма (Близкие враги, Зной, Прикончи их всех ).
Скорее всего больше не буду добавлять, толковых фильмов пока нет.
pb.wtf



    Дорогой пользователь! Огромная просьба, поблагодарите релизера, оцените раздачу и оставьте свои комментарий, если Вы скачали через торрент бесплатно! Внесите свою лепту в развитие PiratBit!
    Комментировать посты могут только пользователи прошедшие не сложную регистрацию
    Показать сообщения:    

    через торрент
    Скачать бесплатно
    скачать торрент
    смотреть онлайн
    Cкачать фильм бесплатно
    скачать торрент в хорошем качестве
    смотреть онлайн бесплатно в хорошем качестве


    Вы не можете начинать темы
    Вы не можете отвечать на сообщения
    Вы не можете редактировать свои сообщения
    Вы не можете удалять свои сообщения
    Вы не можете голосовать в опросах
    Вы не можете прикреплять файлы к сообщениям
    Вы можете скачивать файлы