2 сезон

iTunes

MVO

1

2 сезон

iTunes

iTunes

1 сезон

RePack

30

Новинка

ВАЖНО

ИГРА 18+

pack

RePack

MK11
pack

Легкие деньги

RePack

jed

RePack

fifa19

RePack

RDR2

RePack

NEED FOR SPEED™ PAYBACK

4 сезон

9 сезон

Бесстыжие 9 сезон

Все сериалы

все сериалы на PB.wtf

RePack

FAR CRY 5

Anonymous, добрый вечер, мы не успеваем собрать деньги на оплату серверов за декабрь и январь, помогите нам пожалуйста в это трудное время. В качестве благодарности мы отключим Вам всю рекламу на сайте (укажите свой ник в строку Ваше имя)!

×
  
Magnet ссылка

От звонка до звонка / Starred Up (Дэвид Маккензи) [2013 г., драма, криминал, HDRip, Профессиональный многоголосый "Студия "Чемоданов Продакшн"] pb.wtf

От звонка до звонка через торрент pb.wtf

Размер: 1.39 GB | Добавлен: 4 года 9 мес. назад | Торрент скачан:348 раз
Скачать  

19-04-2016 18:32 От звонка до звонка Скачать торрент  

От звонка до звонка / Starred Up
Год выпуска: 2013
Страна: Великобритания, Ирландия / Film4, Creative Scotland, Quickfire Films
Жанр: драма, криминал
Продолжительность: 01:45:56
Перевод: Профессиональный многоголосый (Студия "Чемоданов Продакшн")

Режиссер: Дэвид Маккензи

IMDB 7.40 (26 551)


В ролях: Джек О’Коннелл, Бен Мендельсон, Руперт Френд, Сэм Спруэлл, Энтони Уэльс, Дэвид Аджала, Питер Фердинандо, Томми МакДоннел, Гершвин Эсташ мл., Эшли Чин

Описание: Проблемного и невероятно жестокого подростка переводят в тюрьму для взрослых, где он встречает своего отца...

Качество: HDRip
Формат: AVI
Видео кодек: XviD
Аудио кодек: AC3
Видео: MPEG4, XviD, 720x304 (2.35:1), 23.976 fps, 1 415 Kbps (0.270 bit/pixel)
Аудио: AC-3, 48.0 KHz, 6 ch, 448 Kbps, CBR
скриншот   скриншот   скриншот   скриншот   скриншот   скриншот  

Общее
Полное имя : F:\кино\От звонка до звонка.2013.HDRip.avi
Формат : AVI
Формат/Информация : Audio Video Interleave
Профиль формата : OpenDML
Размер файла : 1,39 Гбайт
Продолжительность : 1 ч. 45 м.
Общий поток : 1875 Кбит/сек
Программа кодирования : Lavf57.25.100

Видео
Идентификатор : 0
Формат : MPEG-4 Visual
Профиль формата : Simple@L3
Параметр BVOP формата : Нет
Параметр QPel формата : Нет
Параметр GMC формата : Без точки перехода
Параметр матрицы формата : Default (H.263)
Идентификатор кодека : XVID
Идентификатор кодека/Подсказка : XviD
Продолжительность : 1 ч. 45 м.
Битрейт : 1415 Кбит/сек
Ширина : 720 пикселей
Высота : 304 пикселя
Соотношение сторон : 2,35:1
Частота кадров : 23,976 (24000/1001) кадра/сек
Цветовое пространство : YUV
Субдискретизация насыщенности : 4:2:0
Битовая глубина : 8 бит
Тип развёртки : Прогрессивная
Метод сжатия : С потерями
Бит/(Пиксели*Кадры) : 0.270
Размер потока : 1,05 Гбайт (75%)
Библиотека кодирования : XviD 67

Аудио
Идентификатор : 1
Формат : AC-3
Формат/Информация : Audio Coding 3
Расширение режима : CM (complete main)
Параметр Endianness формата : Big
Идентификатор кодека : 2000
Продолжительность : 1 ч. 45 м.
Вид битрейта : Постоянный
Битрейт : 448 Кбит/сек
Каналы : 6 каналов
Расположение каналов : Front: L C R, Side: L R, LFE
Частота : 48,0 КГц
Частота кадров : 31,250 кадров/сек (1536 spf)
Битовая глубина : 16 бит
Метод сжатия : С потерями
Размер потока : 339 Мбайт (24%)
Выравнивание : Соединение по промежуткам
Продолжительность промежутка : 32 мс. (0,77 видеокадр)

pb.wtf



Скачать От звонка до звонка через торрент https://pic.kartinco.top/images/11/mejup.jpg Скачать фильм От звонка до звонка через торрент бесплантно в хорошем качестве Описание: Проблемного и невероятно жестокого подростка переводят в тюрьму для взрослых, где он встречает своего ... 9.1 10 14
Торрент: Зарегистрирован [2016-04-19 18:32] · скачан: 348 раз
Статус: √ проверено
Размер: 1.39 GB
Как cкачать? Как скачать От звонка до звонка через торрент | UTorrent

% Раздел Тема Автор DL S | L
Фильмы 2013 [DVDrip, WEB-DLRip, HDrip] [ 1.45 GB ] От звонка до звонка / Starred Up [2013 HDRip многоголосый MihailHD Скачать
1 | 0
Фильмы без перевода [ 28.72 GB ] От звонка до звонка / Starred Up [2013 BluRay REMUX] [ENG] + [Sub] killermax2013 Скачать
1 | 0

28-11-2019 20:33  

Отключить всю рекламу на сайте

20-04-2016 03:07 От звонка до звонка Скачать торрент  

из 5 на 4 . мне понравился . смотреть можно.pb.wtf



20-04-2016 03:23 От звонка до звонка Скачать торрент  

Прикольное кино мне понравилось) pb.wtf



20-04-2016 10:14 От звонка до звонка Скачать торрент  

Что в этом фильме прикольного непонимаю . Тупое американское кино про зеков. Наши фильмы в этом жанре поярчеpb.wtf



22-04-2016 01:35 От звонка до звонка Скачать торрент  

серега писал(а):

Что в этом фильме прикольного непонимаю . Тупое американское кино про зеков. Наши фильмы в этом жанре поярче

А это, молодой человек, фильм не про "зеков" и не про тюрьму. Видимо поэтому он Вас и не "приколол".pb.wtf



    Дорогой пользователь! Огромная просьба, поблагодарите релизера, оцените раздачу и оставьте свои комментарий, если Вы скачали От звонка до звонка через торрент бесплатно! Внесите свою лепту в развитие PiratBit!
    Комментировать посты могут только пользователи прошедшие не сложную регистрацию
    Показать сообщения:    

    От звонка до звонка через торрент
    Скачать бесплатно От звонка до звонка
    От звонка до звонка скачать торрент
    От звонка до звонка смотреть онлайн
    Cкачать фильм От звонка до звонка бесплатно
    От звонка до звонка скачать торрент в хорошем качестве
    От звонка до звонка смотреть онлайн бесплатно в хорошем качестве


    Вы не можете начинать темы
    Вы не можете отвечать на сообщения
    Вы не можете редактировать свои сообщения
    Вы не можете удалять свои сообщения
    Вы не можете голосовать в опросах
    Вы не можете прикреплять файлы к сообщениям
    Вы можете скачивать файлы