новый адрес
Ссылка на приватное зеркало всего за 1$. Внимание количество ограничено!!!

iTunes

1+1

iTunes

мы

iTunes

1

iTunes

Чернобыль

iTunes

Ральф против интернета

Лицензия

ПШазам

Лицензия

Оно 2

Лицензия

30
pack

Вам бонус

ВАЖНО

!!Акция!!

Alien_RageХит недели

RePack

Resident Evil 21

ИГРА 18+

pack

RePack

jed

!!Акция!!

Alien_Rage

RePack

fifa19

RePack

Assassins Creed: Odyssey

RePack

NEED FOR SPEED™ PAYBACK

3 сезон

9 сезон

Бесстыжие 9 сезон

Все сериалы

все сериалы на PB.wtf

RePack

FAR CRY 5
Ребята, катастрофически не хватает 1900р. для оплаты серверов за Октябрь (всвязи с блокировками трафик упал в 3 раза), 1-2р., выручайте.
  

Андриеш (Яков Базелян, Сергей Параджанов) [1954, СССР, семейный, фэнтези, DVDRip от AVP Studio] pb.wtf

Андриеш через торрент pb.wtf

Размер: 744 MB | Добавлен: 3 года 7 мес. назад | Торрент скачан:19 раз
Скачать  

20-04-2016 07:35 Андриеш Скачать торрент  

Андриеш
Страна: СССР
Производство: Киевская к/ст

Жанр: семейный, фэнтези
Год выпуска: 1954
Продолжительность: 00:58:28

Перевод: Не требуется
Cубтитры: нет
Оригинальная аудиодорожка: русский

Режиссер: Яков Базелян, Сергей Параджанов

В ролях:
Костя Руссу, Людмила Соколова, Нодар Шашик-оглы, Кирилл Штирбу, Евгений Уреке, Домника Дариенко, Роберт Клявин (Визиренко), Трифан Грузин, Гиули Чохонелидзе...
Полный список актёров

Описание:
По одноименной стихотворной сказке Емилиана Букова.
Картине предшествовала дипломная работа («Молдавская сказка») этого же сюжета о герое молдавских сказок — пастушонке Андриеше, мечтавшем стать витязем, о волшебной свирели, которую однажды ему подарил сказочный богатырь Вайнован, и борьбе со злым волшебником Черным Вихрем, ненавидящем все живое. Тогда, для короткометражного фильма, Параджанов соорудил куклу-мальчика Андриеша и снимал ее на натуре. Это были первые опыты сочетания бутафории с живой природой. Спустя четыре года, приступая к постановке первой игровой полнометражной картины, Параджанов по совету А.Довженко повторяет сюжет про Андриеша с актерами. Это был детский фильм, сказка, «которая, — как пишет сам режиссер, — выразила отсутствие опыта, мастерства и хорошего вкуса.».

Источник: DVD5 R5
Качество видео: DVDRip
Формат видео: AVI

Видео: 688x512 (4:3), 25 fps, XviD ~ 1578 kbps avg, 0.179 bit/pixel
Аудио: 48 kHz, Dolby Digital AC3 2.0, 192 kbps

Раздача от:
Общее
Полное имя : Andriesh.1954.DVDRip_[New-team]_by_AVP_Studio.avi
Формат : AVI
Формат/Информация : Audio Video Interleave
Размер файла : 744 Мбайт
Продолжительность : 58 м.
Общий поток : 1780 Кбит/сек
Программа кодирования : VirtualDubMod 1.5.10.3 | www.virtualdub-fr.org || (build 2550/release)
Библиотека кодирования : VirtualDubMod build 2550/release

Видео
Идентификатор : 0
Формат : MPEG-4 Visual
Профиль формата : Advanced Simple@L5
Параметр BVOP формата : 1
Параметр QPel формата : Нет
Параметр GMC формата : Без точки перехода
Параметр матрицы формата : Выборочная
Идентификатор кодека : XVID
Идентификатор кодека/Подсказка : XviD
Продолжительность : 58 м.
Битрейт : 1578 Кбит/сек
Ширина : 688 пикселей
Высота : 512 пикселей
Соотношение сторон : 4:3
Частота кадров : 25,000 кадров/сек
Цветовое пространство : YUV
Субдискретизация насыщенности : 4:2:0
Битовая глубина : 8 бит
Тип развёртки : Прогрессивная
Метод сжатия : С потерями
Бит/(Пиксели*Кадры) : 0.179
Размер потока : 660 Мбайт (89%)
Библиотека кодирования : XviD 1.2.1 (UTC 2008-12-04)

Аудио
Идентификатор : 1
Формат : AC-3
Формат/Информация : Audio Coding 3
Расширение режима : CM (complete main)
Параметр Endianness формата : Big
Идентификатор кодека : 2000
Продолжительность : 58 м.
Вид битрейта : Постоянный
Битрейт : 192 Кбит/сек
Каналы : 2 канала
Расположение каналов : Front: L R
Частота : 48,0 КГц
Частота кадров : 31,250 кадров/сек (1536 spf)
Метод сжатия : С потерями
Размер потока : 80,3 Мбайт (11%)
Выравнивание : Разделение по промежуткам
Продолжительность промежутка : 40 мс. (1,00 видеокадр)
Время предзагрузки промежутка : 500 мс
pb.wtf



Скачать Андриеш через торрент http://s017.radikal.ru/i433/1604/12/969d7a4b108e.png Скачать фильм Андриеш через торрент бесплантно в хорошем качестве Описание:По одноименной стихотворной сказке Емилиана Букова.Картине предшествовала дипломная работа («Молдавская сказка») этого же сюжета о ... 8 10 1
Торрент: Зарегистрирован [2016-04-20 08:44] · скачан: 19 раз
Статус: √ проверено
Размер: 744 MB
Как cкачать? Как скачать Андриеш через торрент | qTorrent

% Раздел Тема Автор DL S | L
Кино СССР [ 744 MB ] Андриеш [1954 СССР DVDRip-AVC от AVP Studio] AVP Studio Скачать
1 | 0
    Дорогой пользователь! Огромная просьба, поблагодарите релизера, оцените раздачу и оставьте свои комментарий, если Вы скачали Андриеш через торрент бесплатно! Внесите свою лепту в развитие PiratBit!
    Комментировать посты могут только пользователи прошедшие не сложную регистрацию
    Показать сообщения:    

    Андриеш через торрент
    Скачать бесплатно Андриеш
    Андриеш скачать торрент
    Андриеш смотреть онлайн
    Cкачать фильм Андриеш бесплатно
    Андриеш скачать торрент в хорошем качестве
    Андриеш смотреть онлайн бесплатно в хорошем качестве


    Вы не можете начинать темы
    Вы не можете отвечать на сообщения
    Вы не можете редактировать свои сообщения
    Вы не можете удалять свои сообщения
    Вы не можете голосовать в опросах
    Вы не можете прикреплять файлы к сообщениям
    Вы можете скачивать файлы