Ссылка на приватное зеркало нашего сайта всего за 1$. Внимание количество ограничено!!!

2 сезон

iTunes

1 сезон

1

2 сезон

2 сезон

iTunes

1 сезон

RePack

30

Ultimate

ВАЖНО

ИГРА 18+

pack

RePack

MK11
pack

Забери бонус

RePack

jed

!!Акция!!

Alien_Rage

RePack

fifa19

RePack

Assassins Creed: Odyssey

RePack

NEED FOR SPEED™ PAYBACK

4 сезон

9 сезон

Бесстыжие 9 сезон

Все сериалы

все сериалы на PB.wtf

RePack

FAR CRY 5
  

Темное дитя / Orphan Black / Сезон: 3 / Серии 1-10 из 10 (Джон Фоусет / John Fawcett, Дэвид Фрэйзи / David Frazee, Т.Дж. Скотт / T.J. Scott) [2015, Канада, фантастика, боевик, драма, BDRip-AVC, MVO] [BaibaKo] pb.wtf

Темное дитя через торрент pb.wtf

Размер: 8.37 GB | Добавлен: 4 года 7 мес. назад | Торрент скачан:20 раз
Скачать  

20-04-2016 11:45 Темное дитя Скачать торрент  


Темное дитя / Orphan Black

«Она была обманута»


  • Год выпуска: 2015
  • Страна: Канада
  • Жанр: фантастика, боевик, драма
  • Продолжительность: 00:42:23 (Серия)
  • Перевод: Профессиональный многоголосый закадровый [BaibaKo]
  • Примечание: Рекламный ролик вырезан!!
  • Режиссер: Джон Фоусет / John Fawcett, Дэвид Фрэйзи / David Frazee, Т.Дж. Скотт / T.J. Scott
  • В ролях:

    Татьяна Маслани (Sarah Manning), Джордан Джаварис (Felix Dawkins), Мария Дойл Кеннеди (Siobhan Sadler), Дилан Брюс (Paul Dierden), Кевин Ханчард (Detective Art Bell), Кристиан Бруун (Donnie Hendrix), Скайлер Уэкслер (Kira), Эвелин Брошу (Delphine Cormier), Josh Vokey (Scott), Эри Миллен (Mark Rollins), Инга Кадранел (Detective Angela DeAngelis), Зои Де Гранд Мезон (Gracie Johanssen)


  • Сара - сирота, которой выпало перенести немало лишений в жизни. Лишенная родительской любви и заботы, Сара чувствует себя отрешенной от этого мира, в котором, как ей кажется, она никому не нужна. Нет ни единого человека, который бы заботился о ней. Но вот и без того нерадостная жизнь девушки однажды омрачается одним трагическим происшествием. Сара невольно становится свидетельницей того, как молодая женщина накладывает на себя руки. Самое страшное - покойная пугающе похожа на саму Сару. Сара совершает странный поступок - она заменяет собой погибшую, выдав себя за неё. Но это становится началом ряда несчастливых событий, которые лишь добавляют Саре проблем. Но на этом не заканчивается. Сара понимает, что она и погибшая не только невероятно похожи друг на друга...
  • Рейтинг:



  • Качество: BDRip-AVC
  • Формат: :MPEG-4
  • Видео кодек: AVC
  • Аудио кодек: AC3
  • Видео: 1024x576 (16:9), 2200 kbps, 25 fps, 0,149 bpp
  • Аудио №1: русский / 5.1 / 48 kHz / 384 kbps / 16 bit |[BaibaKo]|
  • Аудио №2: английский / 5.1 / 48 kHz / 384 kbps / 16 bit
  • Релиз от: GEKADOL

    Код:

    General
    Complete name                            : K:\Тёмное дитя 3 (Orphan Black)\Orphan.Black.s03e10.BDRip-AVС.Rus.Eng.BaibaKo.tv.mp4
    Format                                   : MPEG-4
    Format profile                           : Base Media
    Codec ID                                 : isom
    File size                                : 872 MiB
    Duration                                 : 42mn 23s
    Overall bit rate                         : 2 877 Kbps
    Writing application                      : XviD4PSP 7.0.256
    stik                                     : 9
    hdvd                                     : 1
    iTunMOVI                                 : <?xml version="1.0" encoding="UTF-8"?> / <!DOCTYPE plist PUBLIC "-//Apple//DTD PLIST 1.0//EN" "http://www.apple.com/DTDs/PropertyList-1.0.dtd"> / <plist version="1.0"> / <dict> /     <key>encoding_info</key> /     <array> /         <dict> /             <key>name</key> /             <string>MATROSKA</string> /         </dict> /         <dict> /             <key>name</key> /             <string><![CDATA[WEBM > MP4 / H264 > X264 CBR 2200kbps HQ / DTS > AC3 CBR 384kbps Custom / DTS > AC3 CBR 384kbps Custom]]></string> /         </dict> /     </array> / </dict> / </plist>

    Video
    ID                                       : 1
    Format                                   : AVC
    Format/Info                              : Advanced Video Codec
    Format profile                           : High@L3.2
    Format settings, CABAC                   : Yes
    Format settings, ReFrames                : 4 frames
    Codec ID                                 : avc1
    Codec ID/Info                            : Advanced Video Coding
    Duration                                 : 42mn 23s
    Duration_LastFrame                       : -20ms
    Bit rate                                 : 2 200 Kbps
    Width                                    : 1 024 pixels
    Height                                   : 576 pixels
    Display aspect ratio                     : 16:9
    Frame rate mode                          : Constant
    Frame rate                               : 25.000 fps
    Color space                              : YUV
    Chroma subsampling                       : 4:2:0
    Bit depth                                : 8 bits
    Scan type                                : Progressive
    Bits/(Pixel*Frame)                       : 0.149
    Stream size                              : 638 MiB (73%)
    Writing library                          : x264 core 148 r2665M a01e339
    Encoding settings                        : cabac=1 / ref=3 / deblock=1:-1:-1 / analyse=0x3:0x133 / me=hex / subme=7 / psy=1 / psy_rd=1.00:0.20 / mixed_ref=1 / me_range=16 / chroma_me=1 / trellis=1 / 8x8dct=1 / cqm=0 / deadzone=21,11 / fast_pskip=1 / chroma_qp_offset=-3 / threads=5 / lookahead_threads=1 / sliced_threads=0 / nr=0 / decimate=1 / interlaced=0 / bluray_compat=0 / constrained_intra=0 / bframes=3 / b_pyramid=2 / b_adapt=2 / b_bias=0 / direct=3 / weightb=1 / open_gop=0 / weightp=2 / keyint=250 / keyint_min=25 / scenecut=40 / intra_refresh=0 / rc_lookahead=40 / rc=cbr / mbtree=1 / bitrate=2200 / ratetol=1.0 / qcomp=0.60 / qpmin=0 / qpmax=69 / qpstep=4 / vbv_maxrate=2200 / vbv_bufsize=2200 / nal_hrd=none / filler=0 / ip_ratio=1.40 / aq=1:1.00

    Audio #1
    ID                                       : 2
    Format                                   : AC-3
    Format/Info                              : Audio Coding 3
    Mode extension                           : CM (complete main)
    Codec ID                                 : ac-3
    Duration                                 : 42mn 23s
    Bit rate mode                            : Constant
    Bit rate                                 : 384 Kbps
    Channel(s)                               : 6 channels
    Channel positions                        : Front: L C R, Side: L R, LFE
    Sampling rate                            : 48.0 KHz
    Bit depth                                : 16 bits
    Compression mode                         : Lossy
    Stream size                              : 116 MiB (13%)
    Language                                 : Russian

    Audio #2
    ID                                       : 3
    Format                                   : AC-3
    Format/Info                              : Audio Coding 3
    Mode extension                           : CM (complete main)
    Codec ID                                 : ac-3
    Duration                                 : 42mn 23s
    Bit rate mode                            : Constant
    Bit rate                                 : 384 Kbps
    Channel(s)                               : 6 channels
    Channel positions                        : Front: L C R, Side: L R, LFE
    Sampling rate                            : 48.0 KHz
    Bit depth                                : 16 bits
    Compression mode                         : Lossy
    Stream size                              : 116 MiB (13%)
    Language                                 : English


    Внимание! В сериале присутствуют сцены сексуального характера и ненормативная лексика!

    Скриншоты:



    pb.wtf



  • Скачать Темное дитя через торрент http://pic1.kartinco.top/images/10/4bua6.jpg Скачать фильм Темное дитя через торрент бесплантно в хорошем качестве qw.png Сара - сирота, которой выпало перенести немало лишений в жизни. Лишенная родительской любви и заботы, Сара чувствует себя ... 10 10 2
    Info! Золотая раздача, скачанное не засчитывается.
    Торрент: Зарегистрирован [2016-04-20 11:45] · скачан: 20 раз
    Статус: √ проверено
    Размер: 8.37 GB
    Как cкачать? Как скачать Темное дитя через торрент | qTorrent



    Последний раз редактировалось: GEKADOL (2016-04-21 00:03), всего редактировалось 1 раз

    28-11-2019 20:33  

    Отключить всю рекламу на сайте

    20-04-2016 11:53 Темное дитя Скачать торрент  

    Начну 4 сезон на выходных. pb.wtf



    13-05-2016 15:41 Темное дитя Скачать торрент  

    Не хотелось конечно хныкать,но хоть кто нибудь на раздачу бы...pb.wtf



    20-07-2016 11:09 Темное дитя Скачать торрент  

    Раздайте pb.wtf



      Дорогой пользователь! Огромная просьба, поблагодарите релизера, оцените раздачу и оставьте свои комментарий, если Вы скачали Темное дитя через торрент бесплатно! Внесите свою лепту в развитие PiratBit!
      Комментировать посты могут только пользователи прошедшие не сложную регистрацию
      Показать сообщения:    

      Темное дитя через торрент
      Скачать бесплатно Темное дитя
      Темное дитя скачать торрент
      Темное дитя смотреть онлайн
      Cкачать фильм Темное дитя бесплатно
      Темное дитя скачать торрент в хорошем качестве
      Темное дитя смотреть онлайн бесплатно в хорошем качестве


      Вы не можете начинать темы
      Вы не можете отвечать на сообщения
      Вы не можете редактировать свои сообщения
      Вы не можете удалять свои сообщения
      Вы не можете голосовать в опросах
      Вы не можете прикреплять файлы к сообщениям
      Вы можете скачивать файлы