Ссылка на приватное зеркало нашего сайта всего за 1$. Внимание количество ограничено!!!

2 сезон

iTunes

1 сезон

1

2 сезон

2 сезон

iTunes

1 сезон

RePack

30

Ultimate

ВАЖНО

ИГРА 18+

pack

RePack

MK11
pack

Забери бонус

RePack

jed

!!Акция!!

Alien_Rage

RePack

fifa19

RePack

Assassins Creed: Odyssey

RePack

NEED FOR SPEED™ PAYBACK

4 сезон

9 сезон

Бесстыжие 9 сезон

Все сериалы

все сериалы на PB.wtf

RePack

FAR CRY 5
  

Синистер 2 / Sinister 2 (Киран Фой ) [2015, ужасы, триллер, детектив] Дубляж - [Чистый звук] Blu-ray Remux [1080p] pb.wtf

Синистер 2 через торрент pb.wtf

Размер: 12.37 GB | Добавлен: 4 года 7 мес. назад | Торрент скачан:12 раз
Скачать  

22-04-2016 09:58 Синистер 2 Скачать торрент  

Синистер 2 / Sinister 2

Год выпуска: 2015
Страна: США, Великобритания
Жанр: ужасы, триллер, детектив
Продолжительность: 01:36:43
Примечание: без рекламы
Перевод: Дубляж - [Чистый звук]
Субтитры: Английские, датские, финские, норвежские, шведские
Режиссер: Киран Фой
В ролях: Джеймс Рэнсон (Ex-Deputy So & So), Шаннин Соссамон (Courtney Collins), Роберт Дэниэл Слоун (Dylan Collins), Дартаниан Слоун (Zach Collins), Лиа Коко (Clint Collins), Тейт Эллингтон (Dr. Stomberg), Джон Бизли (Father Rodriguez), Лукас Джейд Зуманн (Milo), Джейден Клейн (Ted), Лайла Хейли (Emma), Кейден М. Фриц (Peter), Оливия Рэйни (Catherine)
Описание:
Сиквел рассказывает о молодом шерифе, решившем продолжить расследование серии таинственных убийств, описанных в первой части фильма, из-за которых в своё время потерял жизнь друг шерифа, Элиссон Освальф.
Расследование приводит шерифа к ферме, где он знакомится с дружелюбной семьей - близнецами Заком, Диланом и их матерью Кортни. Семьей, сбежавшей от издевательств жестокого отца. Каждый день, проведенный в этом доме, может стать для них последним, как и для всех, кто жил здесь ранее и попал в поле зрения самой смерти - беспощадного демона Багула.
Рейтинг:

MPAA: R - Лицам до 17 лет обязательно присутствие взрослого
Качество: Blu-ray
Формат: MKV
Видео: AVC, 1920x1080 (16:9), 15928 kbps, 24 fps, 0,320 bpp
Аудио №1: русский / AC3 / 2.0 / 48 kHz / 192 kbps / 16 bit ||
Аудио №2: английский / AC3 / 2.0 / 48 kHz / 256 kbps / 16 bit
Аудио №3: английский / DTS-HD / 5.1 / 48 kHz / 1560 kbps / 24 bit (Core: 5.1 / 48 kHz / 1510 kbps / 24 bit)

Код:

General
Уникальный идентификатор                 : 196679084843521917668772003148804936173 (0x93F7038E85F15C6FB5109024E71051ED)
Полное имя                               : D:\С инета\CuHuCTEP2.2015.mkv
Формат                                   : Matroska
Версия формата                           : Version 4 / Version 2
Размер файла                             : 12,4 Гбайт
Продолжительность                        : 1 ч. 36 м.
Режим общего битрейта                    : Переменный
Общий поток                              : 18,3 Мбит/сек
Дата кодирования                         : UTC 2015-12-24 00:20:48
Программа кодирования                    : mkvmerge v8.3.0 ('Over the Horizon') 64bit
Библиотека кодирования                   : libebml v1.3.1 + libmatroska v1.4.2

Видео
Идентификатор                            : 1
Формат                                   : AVC
Формат/Информация                        : Advanced Video Codec
Профиль формата                          : High@L4.1
Параметр CABAC формата                   : Да
Параметр ReFrames формата                : 4 кадра
Идентификатор кодека                     : V_MPEG4/ISO/AVC
Продолжительность                        : 1 ч. 36 м.
Вид битрейта                             : Переменный
Битрейт                                  : 14,0 Мбит/сек
Максимальный битрейт                     : 30,0 Мбит/сек
Ширина                                   : 1920 пикселей
Высота                                   : 1080 пикселей
Соотношение сторон                       : 16:9
Режим частоты кадров                     : Постоянный
Частота кадров                           : 24,000 кадра/сек
Цветовое пространство                    : YUV
Субдискретизация насыщенности            : 4:2:0
Битовая глубина                          : 8 бит
Тип развёртки                            : Прогрессивная
Бит/(Пиксели*Кадры)                      : 0.281
Размер потока                            : 9,44 Гбайт (76%)
Язык                                     : English
Default                                  : Да
Forced                                   : Нет

Аудио #1
Идентификатор                            : 2
Формат                                   : AC-3
Формат/Информация                        : Audio Coding 3
Расширение режима                        : CM (complete main)
Параметр Endianness формата              : Big
Идентификатор кодека                     : A_AC3
Продолжительность                        : 1 ч. 36 м.
Вид битрейта                             : Постоянный
Битрейт                                  : 192 Кбит/сек
Каналы                                   : 2 канала
Расположение каналов                     : Front: L R
Частота                                  : 48,0 КГц
Частота кадров                           : 31,250 кадров/сек (1536 spf)
Метод сжатия                             : С потерями
Размер потока                            : 133 Мбайт (1%)
Заголовок                                : Line
Язык                                     : Russian
Default                                  : Да
Forced                                   : Нет

Аудио #2
Идентификатор                            : 3
Формат                                   : AC-3
Формат/Информация                        : Audio Coding 3
Расширение режима                        : CM (complete main)
Параметр Endianness формата              : Big
Идентификатор кодека                     : A_AC3
Продолжительность                        : 1 ч. 36 м.
Вид битрейта                             : Постоянный
Битрейт                                  : 256 Кбит/сек
Каналы                                   : 2 канала
Расположение каналов                     : Front: L R
Частота                                  : 48,0 КГц
Частота кадров                           : 31,250 кадров/сек (1536 spf)
Метод сжатия                             : С потерями
Размер потока                            : 177 Мбайт (1%)
Язык                                     : English
Default                                  : Нет
Forced                                   : Нет

Аудио #3
Идентификатор                            : 4
Формат                                   : DTS
Формат/Информация                        : Digital Theater Systems
Профиль формата                          : MA / Core
Режим                                    : 16
Параметр Endianness формата              : Big
Идентификатор кодека                     : A_DTS
Продолжительность                        : 1 ч. 36 м.
Вид битрейта                             : Переменный / Постоянный
Битрейт                                  : 3840 Кбит/сек / 1509 Кбит/сек
Каналы                                   : 6 каналов
Расположение каналов                     : Front: L C R, Side: L R, LFE
Частота                                  : 48,0 КГц
Частота кадров                           : 93,750 кадра/сек (512 spf)
Битовая глубина                          : 24 бит
Метод сжатия                             : Без потерь / Lossy
Размер потока                            : 2,59 Гбайт (21%)
Язык                                     : English
Default                                  : Нет
Forced                                   : Нет

Текст #1
Идентификатор                            : 5
Формат                                   : UTF-8
Идентификатор кодека                     : S_TEXT/UTF8
Идентификатор кодека/Информация          : UTF-8 Plain Text
Продолжительность                        : 1 ч. 28 м.
Битрейт                                  : 37 бит/сек
Count of elements                        : 940
Размер потока                            : 24,6 Кбайт (0%)
Язык                                     : English
Default                                  : Нет
Forced                                   : Нет

Текст #2
Идентификатор                            : 6
Формат                                   : PGS
Режим смешивания                         : zlib
Идентификатор кодека                     : S_HDMV/PGS
Идентификатор кодека/Информация          : Picture based subtitle format used on BDs/HD-DVDs
Продолжительность                        : 1 ч. 32 м.
Битрейт                                  : 12,7 Кбит/сек
Count of elements                        : 1216
Размер потока                            : 8,44 Мбайт (0%)
Язык                                     : Danish
Default                                  : Нет
Forced                                   : Нет

Текст #3
Идентификатор                            : 7
Формат                                   : PGS
Режим смешивания                         : zlib
Идентификатор кодека                     : S_HDMV/PGS
Идентификатор кодека/Информация          : Picture based subtitle format used on BDs/HD-DVDs
Продолжительность                        : 1 ч. 32 м.
Битрейт                                  : 8971 бит/сек
Count of elements                        : 1216
Размер потока                            : 5,96 Мбайт (0%)
Язык                                     : Finnish
Default                                  : Нет
Forced                                   : Нет

Текст #4
Идентификатор                            : 8
Формат                                   : PGS
Режим смешивания                         : zlib
Идентификатор кодека                     : S_HDMV/PGS
Идентификатор кодека/Информация          : Picture based subtitle format used on BDs/HD-DVDs
Продолжительность                        : 1 ч. 32 м.
Битрейт                                  : 11,6 Кбит/сек
Count of elements                        : 1208
Размер потока                            : 7,69 Мбайт (0%)
Язык                                     : Norwegian
Default                                  : Нет
Forced                                   : Нет

Текст #5
Идентификатор                            : 9
Формат                                   : PGS
Режим смешивания                         : zlib
Идентификатор кодека                     : S_HDMV/PGS
Идентификатор кодека/Информация          : Picture based subtitle format used on BDs/HD-DVDs
Продолжительность                        : 1 ч. 32 м.
Битрейт                                  : 12,8 Кбит/сек
Count of elements                        : 1210
Размер потока                            : 8,52 Мбайт (0%)
Язык                                     : Swedish
Default                                  : Нет
Forced                                   : Нет

Меню
00:00:00.000                             : en:00:00:00.000
00:13:08.166                             : en:00:13:08.166
00:25:17.666                             : en:00:25:17.666
00:36:24.208                             : en:00:36:24.208
00:48:48.083                             : en:00:48:48.083
01:00:53.333                             : en:01:00:53.333
01:12:35.625                             : en:01:12:35.625
01:24:44.916                             : en:01:24:44.916
01:36:42.791                             : en:01:36:42.791

[code]






pb.wtf



Скачать Синистер 2 через торрент http://i79.fastpic.ru/big/2016/0422/5b/a9dfe0f58abf969152b758b1f09b365b.jpg Скачать фильм Синистер 2 через торрент бесплантно в хорошем качестве Описание: Сиквел рассказывает о молодом шерифе, решившем продолжить расследование серии таинственных убийств, описанных в первой части ... 10 10 4
Торрент: Зарегистрирован [2016-04-22 09:58] · скачан: 12 раз
Статус: T временная
Размер: 12.37 GB
Как cкачать? Как скачать Синистер 2 через торрент | qTorrent

% Раздел Тема Автор DL S | L
Фильмы (Blu-ray, BD-Remux, HDDVD) [ 31.01 GB ] Синистер 2 / Sinister 2 [2015 Blu-ray RUS 1080p] [Rus Transfer] DUB [] bober100 Скачать
1 | 0
Фильмы 2015 [DVDrip, WEB-DLRip, HDrip] [ 1.46 GB ] Синистер 2 / Sinister 2 [2015 BDRip] - [] Twi7ter Скачать
1 | 0
Фильмы 2015 [DVDrip, WEB-DLRip, HDrip] [ 1.46 GB ] Синистер 2 / Sinister 2 [2015 BDRip] [Rus Transfer] DUB [] bober100 Скачать
1 | 0
Фильмы 2015 [DVDrip, WEB-DLRip, HDrip] [ 1.42 GB ] Синистер 2 / Sinister 2 [2015 BDRip ] Twi7ter Скачать
1 | 0
Фильмы 2015 [DVDrip, WEB-DLRip, HDrip] [ 2.14 GB ] Синистер 2 / Sinister 2 [2015 BDRip-AVC] Dub [НТВ potroks Скачать
1 | 0
Фильмы 2015 [DVDrip, WEB-DLRip, HDrip] [ 1.42 GB ] Синистер 2 / Sinister 2 [2015 BDRip - [НТВ Twi7ter Скачать
1 | 0
Фильмы 2015 [DVDrip, WEB-DLRip, HDrip] [ 1.42 GB ] Синистер 2 / Sinister 2 [2015 BDRip-AVC] Dub [НТВ potroks Скачать
1 | 0

28-11-2019 20:33  

Отключить всю рекламу на сайте

    Дорогой пользователь! Огромная просьба, поблагодарите релизера, оцените раздачу и оставьте свои комментарий, если Вы скачали Синистер 2 через торрент бесплатно! Внесите свою лепту в развитие PiratBit!
    Комментировать посты могут только пользователи прошедшие не сложную регистрацию
    Показать сообщения:    

    Синистер 2 через торрент
    Скачать бесплатно Синистер 2
    Синистер 2 скачать торрент
    Синистер 2 смотреть онлайн
    Cкачать фильм Синистер 2 бесплатно
    Синистер 2 скачать торрент в хорошем качестве
    Синистер 2 смотреть онлайн бесплатно в хорошем качестве


    Вы не можете начинать темы
    Вы не можете отвечать на сообщения
    Вы не можете редактировать свои сообщения
    Вы не можете удалять свои сообщения
    Вы не можете голосовать в опросах
    Вы не можете прикреплять файлы к сообщениям
    Вы можете скачивать файлы