Всегда рабочее зеркало без VPN и Proxy просто перед .vidak.icu напиши любое слово или цифру, Пример http://26c4.vidak.icu

Лицензия

MVO

1 сезон

1

1 сезон

iTunes

1 сезон

13

1 сезон

Deluxe

pack

Рекомендуем

Repack

30

ВАЖНО

RePack

MK11

RePack

jed

RePack

fifa19

RePack

RDR2

RePack

NEED FOR SPEED™ PAYBACK

Кинопоиск HD

6 сезон

 Острые козырьки 6 сезон

Все сериалы

все сериалы на PB.wtf

RePack

FAR CRY 5
  
Magnet ссылка

Норм и Несокрушимые / Norm of the North (Тревор Уолл / Trevor Wall) [2016, мультфильм, комедия, приключения, BDRip-AVC от potroks] Dub [iTunes] pb.wtf

Норм и Несокрушимые через торрент pb.wtf

Размер: 2.14 GB | Добавлен: 6 лет 3 мес. назад | Торрент скачан:574 раза
Смотреть онлайн Норм и Несокрушимые | Скачать    Ребята, помогите собрать деньги на оплату серверов!!!

23-04-2016 04:15 Норм и Несокрушимые Скачать торрент  

Норм и Несокрушимые / Norm of the North
«Главный мультфильм весенних каникул»
Год выпуска: 2016
Страна: Индия, США / Lionsgate, Assemblage Entertainment...
Жанр: мультфильм, комедия, приключения, семейный
Продолжительность: 01:30:31
Перевод: Дубляж [iTunes]
Субтитры: английские (Full), английские (SDH)
Навигация по главам: есть
Режиссер: Тревор Уолл / Trevor Wall
В ролях:

Роб Шнайдер (Norm, озвучка), Хэзер Грэм (Vera, озвучка), Кен Жонг (Mr. Greene, озвучка), Билл Найи (Socrates, озвучка), Колм Мини (Grandfather, озвучка), Лоретта Дивайн (Tamecia, озвучка), Майкл МакЭлхаттон (Laurence, the Actor, озвучка), Майя Кэй (Olympia, озвучка), Габриэль Иглесиас (Stan / Pablo, озвучка), Салом Дженс (Councilwoman Klubeck, озвучка), Чарльз Адлер (Forebear, озвучка), Гилберт Боус (Female Tourist, озвучка)
Описание: Встречайте! Норм и Несокрушимые - добродушный белый медведь и шустрые лемминги. Их миссия - спасти родную Арктику от коварной корпорации. Могущественный босс Мистер Грин задумал построить здесь, среди чистых льдов, город богачей, и пушистый отряд должен дать противнику бой на его территории.
Норм и Несокрушимые отправляются прямо в каменные джунгли мегаполиса. Их обаяние, отвага, шутки и танцы - особенно зажигательный «Арктик Шейк» - растопят сердца горожан, но для победы мало просто стать звёздами. Впереди - настоящие испытания и вихрь приключений.

Качество: BDRip-AVC
Формат: MKV
Видео кодек: AVC
Аудио кодек: AC3
Видео: 1104x596 (1.852), 2551 kbps, 23,976 fps, 0,162 bit/pixel
Аудио №1: AC3 / 5.1 / 48 kHz / 384 kbps / 16 bit | RUS
Аудио №2: AC3 / 5.1 / 48 kHz / 448 kbps / 16 bit | ENG

Код:

General
Unique ID                                : 203624374260079597845761660460420906510 (0x9930A0C3430B9A68A04B5D10BE0D3E0E)
Complete name                            : Norm.i.Nesokrushymyie.2016.DUAL.BDRip.x264.by_potroks.mkv
Format                                   : Matroska
Format version                           : Version 4 / Version 2
File size                                : 2.14 GiB
Duration                                 : 1h 30mn
Overall bit rate                         : 3 383 Kbps
Movie name                               : Norm of the North (2016)
Encoded date                             : UTC 2016-04-23 03:55:15
Writing application                      : mkvmerge v5.9.0 ('On The Loose') built on Dec 15 2012 16:39:58
Writing library                          : libebml v1.3.0 + libmatroska v1.4.0

Video
ID                                       : 1
Format                                   : AVC
Format/Info                              : Advanced Video Codec
Format profile                           : [email protected]
Format settings, CABAC                   : Yes
Format settings, ReFrames                : 9 frames
Codec ID                                 : V_MPEG4/ISO/AVC
Duration                                 : 1h 30mn
Bit rate                                 : 2 551 Kbps
Width                                    : 1 104 pixels
Height                                   : 596 pixels
Display aspect ratio                     : 1.852
Frame rate                               : 23.976 fps
Color space                              : YUV
Chroma subsampling                       : 4:2:0
Bit depth                                : 8 bits
Scan type                                : Progressive
Bits/(Pixel*Frame)                       : 0.162
Stream size                              : 1.57 GiB (73%)
Title                                    : potroks
Writing library                          : x264 core 148 r2665M a01e339
Encoding settings                        : cabac=1 / ref=9 / deblock=1:-1:-1 / analyse=0x3:0x133 / me=umh / subme=11 / psy=1 / psy_rd=1.06:0.10 / mixed_ref=1 / me_range=32 / chroma_me=1 / trellis=2 / 8x8dct=1 / cqm=0 / deadzone=21,11 / fast_pskip=0 / chroma_qp_offset=-3 / threads=9 / lookahead_threads=2 / sliced_threads=0 / nr=0 / decimate=1 / interlaced=0 / bluray_compat=0 / constrained_intra=0 / bframes=10 / b_pyramid=2 / b_adapt=2 / b_bias=0 / direct=3 / weightb=1 / open_gop=0 / weightp=2 / keyint=240 / keyint_min=23 / scenecut=40 / intra_refresh=0 / rc=2pass / mbtree=0 / bitrate=2551 / ratetol=1.0 / qcomp=0.70 / qpmin=0 / qpmax=69 / qpstep=4 / cplxblur=20.0 / qblur=0.5 / ip_ratio=1.40 / pb_ratio=1.30 / aq=1:0.80
Language                                 : English
Default                                  : Yes
Forced                                   : No
Color primaries                          : BT.709-5, BT.1361, IEC 61966-2-4, SMPTE RP177
Transfer characteristics                 : BT.709-5, BT.1361
Matrix coefficients                      : BT.709-5, BT.1361, IEC 61966-2-4 709, SMPTE RP177

Audio #1
ID                                       : 2
Format                                   : AC-3
Format/Info                              : Audio Coding 3
Mode extension                           : CM (complete main)
Codec ID                                 : A_AC3
Duration                                 : 1h 30mn
Bit rate mode                            : Constant
Bit rate                                 : 384 Kbps
Channel(s)                               : 6 channels
Channel positions                        : Front: L C R, Side: L R, LFE
Sampling rate                            : 48.0 KHz
Bit depth                                : 16 bits
Compression mode                         : Lossy
Stream size                              : 249 MiB (11%)
Title                                    : Dub | DD 5.1 @ 384 kbps - iTunes
Language                                 : Russian
Default                                  : Yes
Forced                                   : No

Audio #2
ID                                       : 3
Format                                   : AC-3
Format/Info                              : Audio Coding 3
Mode extension                           : CM (complete main)
Codec ID                                 : A_AC3
Duration                                 : 1h 30mn
Bit rate mode                            : Constant
Bit rate                                 : 448 Kbps
Channel(s)                               : 6 channels
Channel positions                        : Front: L C R, Side: L R, LFE
Sampling rate                            : 48.0 KHz
Bit depth                                : 16 bits
Compression mode                         : Lossy
Stream size                              : 290 MiB (13%)
Title                                    : Original | DD 5.1 @ 448 kbps
Language                                 : English
Default                                  : No
Forced                                   : No

Text #1
ID                                       : 4
Format                                   : UTF-8
Codec ID                                 : S_TEXT/UTF8
Codec ID/Info                            : UTF-8 Plain Text
Title                                    : Full
Language                                 : English
Default                                  : No
Forced                                   : No

Text #2
ID                                       : 5
Format                                   : UTF-8
Codec ID                                 : S_TEXT/UTF8
Codec ID/Info                            : UTF-8 Plain Text
Title                                    : SDH
Language                                 : English
Default                                  : No
Forced                                   : No

Menu
00:00:00.000                             : :(01)00:00:00:000
00:06:52.161                             : :(02)00:06:52:161
00:14:10.474                             : :(03)00:14:10:474
00:21:09.893                             : :(04)00:21:09:893
00:27:25.977                             : :(05)00:27:25:977
00:35:50.690                             : :(06)00:35:50:690
00:43:51.253                             : :(07)00:43:51:253
00:52:15.882                             : :(08)00:52:15:882
00:57:42.750                             : :(09)00:57:42:750
01:04:43.295                             : :(10)01:04:43:295
01:14:42.519                             : :(11)01:14:42:519
01:25:29.040                             : :(12)01:25:29:040
01:30:31.384                             : :(13)01:30:31:384

pb.wtf



Скачать Норм и Несокрушимые через торрент http://i80.fastpic.ru/big/2016/0423/ae/10f89361f4c22be075b46f546e8dd4ae.png Скачать, смотреть онлайн Норм и Несокрушимые бесплантно в хорошем качестве Описание: Встречайте! Норм и Несокрушимые - добродушный белый медведь и шустрые лемминги. Их миссия - спасти родную Арктику от коварной ... 9 10 21
Info! Золотая раздача, скачанное не засчитывается.
Торрент: Зарегистрирован [2016-04-23 04:15] · скачан: 574 раз
Статус: √ проверено
Размер: 2.14 GB
Как cкачать? Как скачать Норм и Несокрушимые через торрент | UTorrent

% Раздел Тема Автор DL S | L
Зарубежные Мультфильмы (WEB-DL 720p, 1080p) [ 3.46 GB ] Норм и Несокрушимые: Большое путешествие / Norm of the North: King Sized Adventure [2019 мультфильм WEB-DL 1080p] bober100 Скачать
1 | 0
Иностранные мультфильмы [ 1.37 GB ] Норм и Несокрушимые: Большое путешествие / Norm of the North: King Sized Adventure [2019 мультфильм WEB-DLRip] bober100 Скачать
1 | 0
Зарубежные Мультфильмы (BDRip 1080p, 720p, Blu-ray, BD-Remux) [ 6.05 GB ] Норм и Несокрушимые / Norm of the North [2016 мультфильм BDRip 1080p] [Tunes] $-DRON-$ Скачать
1 | 0
R.G.Resident - Мультфильмы, Видео [ 1.46 GB ] Норм и Несокрушимые / Norm of the North [2016 мультфильм HDRip-AVC ] ] White Smoke Скачать
1 | 0
Иностранные мультфильмы [ 1.42 GB ] Норм и Несокрушимые / Norm of the North [2016 мультфильм BDRip ] Twi7ter Скачать
1 | 0
Иностранные мультфильмы [ 1.37 GB ] Норм и Несокрушимые / Norm of the North [2016 мультфильм ] BDRip ] DINO-UFO Скачать
1 | 0

28-11-2019 20:33  

Отключить вcю реклaмy на сайте

    Дорогой пользователь! Огромная просьба, поблагодарите релизера, оцените раздачу и оставьте свои комментарий, если Вы скачали Норм и Несокрушимые через торрент бесплатно!
    Комментировать посты могут только пользователи прошедшие не сложную регистрацию
    Показать сообщения:    

    Норм и Несокрушимые через торрент
    Скачать бесплатно Норм и Несокрушимые
    Норм и Несокрушимые скачать торрент
    Норм и Несокрушимые смотреть онлайн
    Cкачать фильм Норм и Несокрушимые бесплатно
    Норм и Несокрушимые скачать торрент в хорошем качестве
    Норм и Несокрушимые смотреть онлайн бесплатно в хорошем качестве


    Вы не можете начинать темы
    Вы не можете отвечать на сообщения
    Вы не можете редактировать свои сообщения
    Вы не можете удалять свои сообщения
    Вы не можете голосовать в опросах
    Вы не можете прикреплять файлы к сообщениям
    Вы можете скачивать файлы