Ссылка на приватное зеркало нашего сайта всего за 1$. Внимание количество ограничено!!!

2 сезон

iTunes

1 сезон

1

iTunes

iTunes

iTunes

1 сезон

RePack

30

ИГРА 18+

pack

ВАЖНО

!!Акция!!

Alien_RageХит недели

RePack

MK11
pack

Забери бонус

RePack

jed

!!Акция!!

Alien_Rage

RePack

fifa19

RePack

Assassins Creed: Odyssey

RePack

NEED FOR SPEED™ PAYBACK

4 сезон

9 сезон

Бесстыжие 9 сезон

Все сериалы

все сериалы на PB.wtf

RePack

FAR CRY 5
  

Норм и Несокрушимые / Norm of the North (Тревор Уолл ) [2016, мультфильм, комедия, приключения] BDRip Дубляж] iTunes pb.wtf

Норм и Несокрушимые через торрент pb.wtf

Раздают: 1 [ 0 KB/s ]
Размер: 1.37 GB | Добавлен: 4 года 5 мес. назад | Торрент скачан:642 раза
Скачать  

23-04-2016 07:41 Норм и Несокрушимые Скачать торрент  

Норм и Несокрушимые / Norm of the North
Год выпуска: 2016
Страна: Индия, США
Жанр: мультфильм, комедия, приключения, семейный
Продолжительность: 01:30:31
Примечание: релиз без рекламы
Перевод: Дубляж - [Лицензия / iTunes]
Профессиональный многоголосый [Лицензия / iTunes]
Режиссер: Тревор Уолл
В ролях: Роб Шнайдер (Norm, озвучка), Хэзер Грэм (Vera, озвучка), Кен Жонг (Mr. Greene, озвучка), Билл Найи (Socrates, озвучка), Колм Мини (Grandfather, озвучка), Лоретта Дивайн (Tamecia, озвучка), Майкл МакЭлхаттон (Laurence, the Actor, озвучка), Майя Кэй (Olympia, озвучка), Габриэль Иглесиас (Stan / Pablo, озвучка), Салом Дженс (Councilwoman Klubeck, озвучка), Чарльз Адлер (Forebear, озвучка), Гилберт Боус (Female Tourist, озвучка)
Описание:
Встречайте! Норм и Несокрушимые - добродушный белый медведь и шустрые лемминги. Их миссия - спасти родную Арктику от коварной корпорации. Могущественный босс Мистер Грин задумал построить здесь, среди чистых льдов, город богачей, и пушистый отряд должен дать противнику бой на его территории.
Норм и Несокрушимые отправляются прямо в каменные джунгли мегаполиса. Их обаяние, отвага, шутки и танцы - особенно зажигательный «Арктик Шейк» - растопят сердца горожан, но для победы мало просто стать звёздами. Впереди - настоящие испытания и вихрь приключений.
Рейтинг:

MPAA: PG - Рекомендуется присутствие родителей
Качество: BDRip
Формат: AVI
Видео: XviD, 720x384 (1.875), 1768 kbps, 23,976 fps, 0,267 bpp
Аудио: AC3 / 5.1 / 48 kHz / 384 kbps / 16 bit






Код:

General
Общее
Полное имя                               : D:\С инета\Norm.Of.The.North.2016.BDRip.avi
Формат                                   : AVI
Формат/Информация                        : Audio Video Interleave
Размер файла                             : 1,37 Гбайт
Продолжительность                        : 1 ч. 30 м.
Общий поток                              : 2162 Кбит/сек
Программа кодирования                    : VirtualDubModRus 1.5.10.2 (build 2542/release)
Библиотека кодирования                   : VirtualDubMod build 2542/release

Видео
Идентификатор                            : 0
Формат                                   : MPEG-4 Visual
Профиль формата                          : Advanced Simple@L5
Параметр BVOP формата                    : 1
Параметр QPel формата                    : Нет
Параметр GMC формата                     : Без точки перехода
Параметр матрицы формата                 : Default (MPEG)
Идентификатор кодека                     : XVID
Идентификатор кодека/Подсказка           : XviD
Продолжительность                        : 1 ч. 30 м.
Битрейт                                  : 1769 Кбит/сек
Ширина                                   : 720 пикселей
Высота                                   : 384 пикселя
Соотношение сторон                       : 1,85:1
Частота кадров                           : 23,976 (23976/1000) кадра/сек
Цветовое пространство                    : YUV
Субдискретизация насыщенности            : 4:2:0
Битовая глубина                          : 8 бит
Тип развёртки                            : Прогрессивная
Метод сжатия                             : С потерями
Бит/(Пиксели*Кадры)                      : 0.267
Размер потока                            : 1,12 Гбайт (82%)
Библиотека кодирования                   : XviD 1.2.1 (UTC 2008-12-04)

Аудио
Идентификатор                            : 1
Формат                                   : AC-3
Формат/Информация                        : Audio Coding 3
Расширение режима                        : CM (complete main)
Параметр Endianness формата              : Big
Идентификатор кодека                     : 2000
Продолжительность                        : 1 ч. 30 м.
Вид битрейта                             : Постоянный
Битрейт                                  : 384 Кбит/сек
Каналы                                   : 6 каналов
Расположение каналов                     : Front: L C R, Side: L R, LFE
Частота                                  : 48,0 КГц
Частота кадров                           : 31,250 кадров/сек (1536 spf)
Метод сжатия                             : С потерями
Размер потока                            : 249 Мбайт (18%)
Выравнивание                             : Разделение по промежуткам
Продолжительность промежутка             : 42  мс. (1,00 видеокадр)
Время предзагрузки промежутка            : 500  мс.

pb.wtf



Скачать Норм и Несокрушимые через торрент http://s020.radikal.ru/i718/1604/22/bd74958e2d95.jpg Скачать фильм Норм и Несокрушимые через торрент бесплантно в хорошем качестве Описание: Встречайте! Норм и Несокрушимые - добродушный белый медведь и шустрые лемминги. Их миссия - спасти родную Арктику от коварной ... 9.3 10 18
Info! Золотая раздача, скачанное не засчитывается.
Торрент: Зарегистрирован [2016-04-23 07:41] · скачан: 642 раз
Статус: √ проверено
Размер: 1.37 GB
Как cкачать? Как скачать Норм и Несокрушимые через торрент | qTorrent

% Раздел Тема Автор DL S | L
Зарубежные Мультфильмы (WEB-DL 720p, 1080p) [ 3.46 GB ] Норм и Несокрушимые: Большое путешествие / Norm of the North: King Sized Adventure [2019 мультфильм WEB-DL 1080p] bober100 Скачать
2 | 0
Иностранные мультфильмы [ 1.37 GB ] Норм и Несокрушимые: Большое путешествие / Norm of the North: King Sized Adventure [2019 мультфильм WEB-DLRip] bober100 Скачать
2 | 0
R.G.Resident - Мультфильмы, Видео [ 1.46 GB ] Норм и Несокрушимые / Norm of the North [2016 мультфильм HDRip-AVC ] ] White Smoke Скачать
1 | 0
Иностранные мультфильмы [ 1.42 GB ] Норм и Несокрушимые / Norm of the North [2016 мультфильм BDRip ] Twi7ter Скачать
1 | 0
Иностранные мультфильмы [ 2.14 GB ] Норм и Несокрушимые / Norm of the North [2016 мультфильм BDRip-AVC] Dub potroks Скачать
1 | 0

28-11-2019 20:33  

Отключить всю рекламу на сайте

25-04-2016 16:19 Норм и Несокрушимые Скачать торрент  

Кто смотрел отпишитесь :)pb.wtf



25-04-2016 18:12 Норм и Несокрушимые Скачать торрент  

мульт для детей до 3 летpb.wtf



26-04-2016 04:05 Норм и Несокрушимые Скачать торрент  

Мульт явно не стоит потраченного на него времени. Кто ещё не смотрел - спокойно проходите мимо.pb.wtf



    Дорогой пользователь! Огромная просьба, поблагодарите релизера, оцените раздачу и оставьте свои комментарий, если Вы скачали Норм и Несокрушимые через торрент бесплатно! Внесите свою лепту в развитие PiratBit!
    Комментировать посты могут только пользователи прошедшие не сложную регистрацию
    Показать сообщения:    

    Норм и Несокрушимые через торрент
    Скачать бесплатно Норм и Несокрушимые
    Норм и Несокрушимые скачать торрент
    Норм и Несокрушимые смотреть онлайн
    Cкачать фильм Норм и Несокрушимые бесплатно
    Норм и Несокрушимые скачать торрент в хорошем качестве
    Норм и Несокрушимые смотреть онлайн бесплатно в хорошем качестве


    Вы не можете начинать темы
    Вы не можете отвечать на сообщения
    Вы не можете редактировать свои сообщения
    Вы не можете удалять свои сообщения
    Вы не можете голосовать в опросах
    Вы не можете прикреплять файлы к сообщениям
    Вы можете скачивать файлы