Ссылка на приватное зеркало всего за 1$. Внимание количество ограничено!!!

iTunes

1+1

iTunes

мы

WEB-DL

1

iTunes

Чернобыль

iTunes

Ральф против интернета

Лицензия

ПШазам

Лицензия

Оно 2

Лицензия

30
pack

Вам бонус

ВАЖНО

!!Акция!!

Alien_RageХит недели

RePack

Resident Evil 21

ИГРА 18+

pack

RePack

jed

!!Акция!!

Alien_Rage

RePack

fifa19

RePack

Assassins Creed: Odyssey

RePack

NEED FOR SPEED™ PAYBACK

3 сезон

9 сезон

Бесстыжие 9 сезон

Все сериалы

все сериалы на PB.wtf

RePack

FAR CRY 5
Ребята, катастрофически не хватает 1900р. для оплаты серверов за Октябрь (всвязи с блокировками трафик упал в 3 раза), 1-2р., выручайте.
  

Большая семья (Иосиф Хейфиц) [1954, СССР, драма, DVDRip от AVP Studio] pb.wtf

Большая семья через торрент pb.wtf

Размер: 1.46 GB | Добавлен: 3 года 7 мес. назад | Торрент скачан:33 раза
Скачать  

23-04-2016 08:33 Большая семья Скачать торрент  

Большая семья

Страна: СССР
Производство: Ленфильм

Жанр: драма
Год выпуска: 1954
Продолжительность: 01:40:15

Перевод: Не требуется
Cубтитры: нет
Оригинальная аудиодорожка: русский

Режиссер: Иосиф Хейфиц

В ролях:
Сергей Лукьянов, Борис Андреев, Вера Кузнецова, Алексей Баталов, Ия Арепина, Сергей Курилов, Вадим Медведев, Борис Битюков, Клара Лучко, Екатерина Савинова, Николай Сергеев, Елена Добронравова, Павел Кадочников, Лариса Кронберг, Николай Гриценко, Борис Коковкин...
Полный список актёров

Описание:
Лирическая киноповесть.
По мотивам романа В.Кочетова "Журбины".
О трех поколениях семьи потомственных мастеров-судостроителей. Самым сложным характером наделен Алексей: ушел из семьи, сменил профессию, потерял любимую девушку и нашел в себе силы для того, чтобы вернуть свое счастье...

Источник: DVD5 R5
Качество видео: DVDRip
Формат видео: AVI

Видео: 688x512 (4:3), 25 fps, XviD ~ 1880 kbps avg, 0.214 bit/pixel
Аудио: 48 kHz, Dolby Digital AC3 2.0, 192 kbps

Раздача от:
Золотая пальмовая ветвь
Серебряная премия за лучшую мужскую роль (Борис Андреев , Алексей Баталов , Борис Битюков , Николай Гриценко , Павел Кадочников , Борис Коковкин , Сергей Курилов , Сергей Лукьянов , Вадим Медведев , Николай Сергеев)
Серебряная премия за лучшую женскую роль (Ия Арепина , Елена Добронравова , Лариса Кронберг , Вера Кузнецова , Клара Лучко , Екатерина Савинова)
Общее
Полное имя : Bolshaya.semya.1954.DVDRip_[New-team]_by_AVP_Studio.avi
Формат : AVI
Формат/Информация : Audio Video Interleave
Размер файла : 1,46 Гбайт
Продолжительность : 1 ч. 40 м.
Общий поток : 2082 Кбит/сек
Программа кодирования : VirtualDubMod 1.5.10.3 | www.virtualdub-fr.org || (build 2550/release)
Библиотека кодирования : VirtualDubMod build 2550/release

Видео
Идентификатор : 0
Формат : MPEG-4 Visual
Профиль формата : Advanced Simple@L5
Параметр BVOP формата : 1
Параметр QPel формата : Нет
Параметр GMC формата : Без точки перехода
Параметр матрицы формата : Выборочная
Идентификатор кодека : XVID
Идентификатор кодека/Подсказка : XviD
Продолжительность : 1 ч. 40 м.
Битрейт : 1880 Кбит/сек
Ширина : 688 пикселей
Высота : 512 пикселей
Соотношение сторон : 4:3
Частота кадров : 25,000 кадров/сек
Цветовое пространство : YUV
Субдискретизация насыщенности : 4:2:0
Битовая глубина : 8 бит
Тип развёртки : Прогрессивная
Метод сжатия : С потерями
Бит/(Пиксели*Кадры) : 0.214
Размер потока : 1,32 Гбайт (90%)
Библиотека кодирования : XviD 1.2.1 (UTC 2008-12-04)

Аудио
Идентификатор : 1
Формат : AC-3
Формат/Информация : Audio Coding 3
Расширение режима : CM (complete main)
Параметр Endianness формата : Big
Идентификатор кодека : 2000
Продолжительность : 1 ч. 40 м.
Вид битрейта : Постоянный
Битрейт : 192 Кбит/сек
Каналы : 2 канала
Расположение каналов : Front: L R
Частота : 48,0 КГц
Частота кадров : 31,250 кадров/сек (1536 spf)
Метод сжатия : С потерями
Размер потока : 138 Мбайт (9%)
Выравнивание : Разделение по промежуткам
Продолжительность промежутка : 40 мс. (1,00 видеокадр)
Время предзагрузки промежутка : 500 мс
pb.wtf



Скачать Большая семья через торрент http://st.kp.yandex.net/images/movies/awardCannes.png Скачать фильм Большая семья через торрент бесплантно в хорошем качестве Описание:Лирическая киноповесть.По мотивам романа В.Кочетова "Журбины".О трех поколениях семьи потомственных мастеров-судостроителей. Самым ... 10 10 1
Info! Золотая раздача, скачанное не засчитывается.
Торрент: Зарегистрирован [2016-04-23 08:33] · скачан: 33 раз
Статус: √ проверено
Размер: 1.46 GB
Как cкачать? Как скачать Большая семья через торрент | qTorrent

% Раздел Тема Автор DL S | L
Кино СССР [ 1.46 GB ] Большая семья [1954 СССР DVDRip-AVC от AVP Studio] AVP Studio Скачать
1 | 0
Кино СССР [ 745 MB ] Большая семья [1954 СССР DVDRip от AVP Studio] AVP Studio Скачать
1 | 0
T Фильмы 2013 [DVDrip, WEB-DLRip, HDrip] [ 1.46 GB ] Моя большая испанская семья / La gran familia española [2013 HDRip многоголосый закадровый ] coc900 Скачать
1 | 0
Наши сериалы [ 5.15 GB ] Моя большая семья / / [2012 Мело SATRip] -=Cherry=- Скачать
1 | 0

28-11-2019 20:33  

Отключить всю рекламу на сайте

    Дорогой пользователь! Огромная просьба, поблагодарите релизера, оцените раздачу и оставьте свои комментарий, если Вы скачали Большая семья через торрент бесплатно! Внесите свою лепту в развитие PiratBit!
    Комментировать посты могут только пользователи прошедшие не сложную регистрацию
    Показать сообщения:    

    Большая семья через торрент
    Скачать бесплатно Большая семья
    Большая семья скачать торрент
    Большая семья смотреть онлайн
    Cкачать фильм Большая семья бесплатно
    Большая семья скачать торрент в хорошем качестве
    Большая семья смотреть онлайн бесплатно в хорошем качестве


    Вы не можете начинать темы
    Вы не можете отвечать на сообщения
    Вы не можете редактировать свои сообщения
    Вы не можете удалять свои сообщения
    Вы не можете голосовать в опросах
    Вы не можете прикреплять файлы к сообщениям
    Вы можете скачивать файлы