Ссылка на приватное зеркало нашего сайта всего за 1$. Внимание количество ограничено!!!

2 сезон

iTunes

1 сезон

1

iTunes

iTunes

iTunes

1 сезон

RePack

30

ИГРА 18+

pack

ВАЖНО

!!Акция!!

Alien_RageХит недели

RePack

MK11
pack

Забери бонус

RePack

jed

!!Акция!!

Alien_Rage

RePack

fifa19

RePack

Assassins Creed: Odyssey

RePack

NEED FOR SPEED™ PAYBACK

4 сезон

9 сезон

Бесстыжие 9 сезон

Все сериалы

все сериалы на PB.wtf

RePack

FAR CRY 5
  

Пока не сыграл в ящик / The Bucket List (Роб Райнер ) [2007, драма, комедия, приключения, BDRip 720p от _denis_100 / NNNB ] DUB, 2xAVO pb.wtf

Пока не сыграл в ящик через торрент pb.wtf

Размер: 4.68 GB | Добавлен: 4 года 6 мес. назад | Торрент скачан:285 раз
Скачать  

23-04-2016 08:49 Пока не сыграл в ящик Скачать торрент  

Пока не сыграл в ящик / The Bucket List
«Оторвись напоследок»


Год выпуска: 2007
Страна: США
Жанр: драма, комедия, приключения
Продолжительность: 01:37:04
Перевод: Дублированный, Авторский одноголосый
Субтитры: русские, английские
Режиссер: Роб Райнер
В ролях: Джек Николсон , Морган Фриман , Шон Хейс , Беверли Тодд , Роб Морроу , Альфонсо Фриман , Роуэна Кинг , Эннтон Берри мл. , Верда Бриджес , Дестини Браунридж , Брайан Коуплэнд , Йен Энтони Дэйл
Описание:
Именно так решили два больных раком соседа по больничной палате, когда услышали свой приговор. Один из них вспыльчивый миллиардер, а второй эрудированный автомеханик. Они составляют список дел, которые необходимо сделать прежде, чем они сыграют в ящик, и отправляются в кругосветное путешествие, путешествие всей своей жизни.
Прыжки с парашютом? Посмотрим. Гонки на раритетных автомобилях? Сделано. Посмотреть на пирамиды? Отлично. Открыть радость жизни прежде, чем станет слишком поздно? Точно!

PG-13 - Детям до 13 лет просмотр не желателен
Качество: BDRip 720p
Контейнер (Расширение): MKV
Видео: 1280x720, 4783 Кбит/сек, 23,976 кадр/сек, 0,216 Бит/[Пиксели*Кадры]
Аудио №1: русский / AC3 / 5.1 / 48 kHz / 384 kbps / 16 bit |Дублированный|
Аудио №2: русский / AC3 / 5.1 / 48 kHz / 640 kbps / 16 bit |Авторский, Ю.Немахов|
Аудио №3: русский / AC3 / 5.1 / 48 kHz / 448 kbps / 16 bit |Авторский, А. Гаврилов|
Аудио №4: английский / AC3 / 5.1 / 48 kHz / 640 kbps / 16 bit
Навигация по главам(Чаптеры): естьАвтор рипа: Сообщество:
Авторские переводы отдельно:

Код:

Format                                   : Matroska
Format version                           : Version 2
File size                                : 4.68 GiB
Duration                                 : 1h 37mn
Overall bit rate                         : 6 895 Kbps
Movie name                               : The Bucket List.(2007).BDRip.720p.[denis100]
Encoded date                             : UTC 2016-04-23 07:38:51
Writing application                      : mkvmerge v5.8.0 ('No Sleep / Pillow') built on Sep  2 2012 15:37:04
Writing library                          : libebml v1.2.3 + libmatroska v1.3.0

Video
ID                                       : 1
Format                                   : AVC
Format/Info                              : Advanced Video Codec
Format profile                           : High@L4.1
Format settings, CABAC                   : Yes
Format settings, ReFrames                : 9 frames
Codec ID                                 : V_MPEG4/ISO/AVC
Duration                                 : 1h 37mn
Bit rate                                 : 4 783 Kbps
Width                                    : 1 280 pixels
Height                                   : 720 pixels
Display aspect ratio                     : 16:9
Frame rate                               : 23.976 fps
Color space                              : YUV
Chroma subsampling                       : 4:2:0
Bit depth                                : 8 bits
Scan type                                : Progressive
Bits/(Pixel*Frame)                       : 0.216
Stream size                              : 3.15 GiB (67%)
Title                                    : The Bucket List.(2007).BDRip.720p.[denis100]
Writing library                          : x264 core 132 r2310 76a5c3a
Encoding settings                        : cabac=1 / ref=9 / deblock=1:0:0 / analyse=0x3:0x113 / me=umh / subme=11 / psy=1 / psy_rd=1.00:0.10 / mixed_ref=1 / me_range=48 / chroma_me=1 / trellis=2 / 8x8dct=1 / cqm=0 / deadzone=21,11 / fast_pskip=0 / chroma_qp_offset=-3 / threads=6 / lookahead_threads=1 / sliced_threads=0 / nr=0 / decimate=0 / interlaced=0 / bluray_compat=0 / constrained_intra=0 / bframes=8 / b_pyramid=2 / b_adapt=2 / b_bias=0 / direct=3 / weightb=1 / open_gop=0 / weightp=2 / keyint=240 / keyint_min=23 / scenecut=40 / intra_refresh=0 / rc_lookahead=60 / rc=2pass / mbtree=1 / bitrate=4783 / ratetol=1.0 / qcomp=0.60 / qpmin=0 / qpmax=69 / qpstep=4 / cplxblur=20.0 / qblur=0.5 / ip_ratio=1.40 / aq=1:0.95
Language                                 : English
Default                                  : Yes
Forced                                   : No

Audio #1
ID                                       : 2
Format                                   : AC-3
Format/Info                              : Audio Coding 3
Mode extension                           : CM (complete main)
Codec ID                                 : A_AC3
Duration                                 : 1h 37mn
Bit rate mode                            : Constant
Bit rate                                 : 384 Kbps
Channel(s)                               : 6 channels
Channel positions                        : Front: L C R, Side: L R, LFE
Sampling rate                            : 48.0 KHz
Bit depth                                : 16 bits
Compression mode                         : Lossy
Stream size                              : 267 MiB (6%)
Title                                    : Дублированный, R5
Language                                 : Russian
Default                                  : Yes
Forced                                   : No

Audio #2
ID                                       : 3
Format                                   : AC-3
Format/Info                              : Audio Coding 3
Mode extension                           : CM (complete main)
Codec ID                                 : A_AC3
Duration                                 : 1h 37mn
Bit rate mode                            : Constant
Bit rate                                 : 640 Kbps
Channel(s)                               : 6 channels
Channel positions                        : Front: L C R, Side: L R, LFE
Sampling rate                            : 48.0 KHz
Bit depth                                : 16 bits
Compression mode                         : Lossy
Stream size                              : 444 MiB (9%)
Title                                    : Авторский, Ю.Немахов
Language                                 : Russian
Default                                  : No
Forced                                   : No

Audio #3
ID                                       : 4
Format                                   : AC-3
Format/Info                              : Audio Coding 3
Mode extension                           : CM (complete main)
Codec ID                                 : A_AC3
Duration                                 : 1h 37mn
Bit rate mode                            : Constant
Bit rate                                 : 448 Kbps
Channel(s)                               : 6 channels
Channel positions                        : Front: L C R, Side: L R, LFE
Sampling rate                            : 48.0 KHz
Bit depth                                : 16 bits
Compression mode                         : Lossy
Stream size                              : 311 MiB (6%)
Title                                    : Авторский, А. Гаврилов
Language                                 : Russian
Default                                  : No
Forced                                   : No

Audio #4
ID                                       : 5
Format                                   : AC-3
Format/Info                              : Audio Coding 3
Mode extension                           : CM (complete main)
Codec ID                                 : A_AC3
Duration                                 : 1h 37mn
Bit rate mode                            : Constant
Bit rate                                 : 640 Kbps
Channel(s)                               : 6 channels
Channel positions                        : Front: L C R, Side: L R, LFE
Sampling rate                            : 48.0 KHz
Bit depth                                : 16 bits
Compression mode                         : Lossy
Stream size                              : 444 MiB (9%)
Language                                 : English
Default                                  : No
Forced                                   : No

Text #1
ID                                       : 6
Format                                   : UTF-8
Codec ID                                 : S_TEXT/UTF8
Codec ID/Info                            : UTF-8 Plain Text
Language                                 : Russian
Default                                  : No
Forced                                   : No

Text #2
ID                                       : 7
Format                                   : UTF-8
Codec ID                                 : S_TEXT/UTF8
Codec ID/Info                            : UTF-8 Plain Text
Language                                 : English
Default                                  : No
Forced                                   : No

Menu
00:00:00.000                             : en:Chapter 01
00:01:30.090                             : en:Chapter 02
00:06:09.702                             : en:Chapter 03
00:12:38.424                             : en:Chapter 04
00:17:06.358                             : en:Chapter 05
00:23:10.722                             : en:Chapter 06
00:29:30.935                             : en:Chapter 07
00:35:30.128                             : en:Chapter 08
00:38:45.489                             : en:Chapter 09
00:42:03.687                             : en:Chapter 10
00:45:58.755                             : en:Chapter 11
00:49:39.476                             : en:Chapter 12
00:53:04.681                             : en:Chapter 13
00:57:50.133                             : en:Chapter 14
01:03:42.652                             : en:Chapter 15
01:06:43.666                             : en:Chapter 16
01:09:18.988                             : en:Chapter 17
01:14:11.113                             : en:Chapter 18
01:16:35.924                             : en:Chapter 19
01:20:54.349                             : en:Chapter 20
01:23:23.665                             : en:Chapter 21
01:26:55.710                             : en:Chapter 22
01:32:21.536                             : en:Chapter 23

pb.wtf



Скачать Пока не сыграл в ящик через торрент http://i79.fastpic.ru/big/2016/0423/e9/166c78914b4175950499efb069db0ce9.png Скачать фильм Пока не сыграл в ящик через торрент бесплантно в хорошем качестве Описание:Именно так решили два больных раком соседа по больничной палате, когда услышали свой приговор. Один из них вспыльчивый миллиардер, ... 10 10 4
Info! Золотая раздача, скачанное не засчитывается.
Торрент: Зарегистрирован [2016-04-23 08:49] · скачан: 285 раз
Статус: √ проверено
Размер: 4.68 GB
Как cкачать? Как скачать Пока не сыграл в ящик через торрент | qTorrent

% Раздел Тема Автор DL S | L
Фильмы [HD 720p, 1080p] (Хороший звук DUB, MVO) [ 8.25 GB ] Пока не сыграл в ящик / The Bucket List [2007 BDRip 1080p от _denis_100 / NNNB ] DUB 2xAVO _denis_100 Скачать
1 | 0

28-11-2019 20:33  

Отключить всю рекламу на сайте

    Дорогой пользователь! Огромная просьба, поблагодарите релизера, оцените раздачу и оставьте свои комментарий, если Вы скачали Пока не сыграл в ящик через торрент бесплатно! Внесите свою лепту в развитие PiratBit!
    Комментировать посты могут только пользователи прошедшие не сложную регистрацию
    Показать сообщения:    

    Пока не сыграл в ящик через торрент
    Скачать бесплатно Пока не сыграл в ящик
    Пока не сыграл в ящик скачать торрент
    Пока не сыграл в ящик смотреть онлайн
    Cкачать фильм Пока не сыграл в ящик бесплатно
    Пока не сыграл в ящик скачать торрент в хорошем качестве
    Пока не сыграл в ящик смотреть онлайн бесплатно в хорошем качестве


    Вы не можете начинать темы
    Вы не можете отвечать на сообщения
    Вы не можете редактировать свои сообщения
    Вы не можете удалять свои сообщения
    Вы не можете голосовать в опросах
    Вы не можете прикреплять файлы к сообщениям
    Вы можете скачивать файлы