Ссылка на приватное зеркало нашего сайта всего за 1$. Внимание количество ограничено!!!

2 сезон

iTunes

1 сезон

1

iTunes

iTunes

iTunes

1 сезон

RePack

30

ИГРА 18+

pack

ВАЖНО

!!Акция!!

Alien_RageХит недели

RePack

MK11
pack

Забери бонус

RePack

jed

!!Акция!!

Alien_Rage

RePack

fifa19

RePack

Assassins Creed: Odyssey

RePack

NEED FOR SPEED™ PAYBACK

4 сезон

9 сезон

Бесстыжие 9 сезон

Все сериалы

все сериалы на PB.wtf

RePack

FAR CRY 5
  

Джой / Joy (Дэвид О. Расселл) [2015 г., драма, комедия, биография, BDRip 1080p] DUB [iTunes] pb.wtf

Джой через торрент pb.wtf

Размер: 11.49 GB | Добавлен: 4 года 5 мес. назад | Торрент скачан:104 раза
Скачать  

23-04-2016 10:49 Джой Скачать торрент  

Джой / Joy«In America the ordinary needs the extraordinary every single day»
Год выпуска » 2015
Страна » США
Жанр » Драма, комедия, биография
Продолжительность » 02:04:19
Перевод » Профессиональный (полное дублирование) [iTunes]
Субтитры » Русские, украинские, английские

В ролях
» Дженнифер Лоуренс, Роберт Де Ниро, Брэдли Купер, Эдгар Рамирес, Дайан Лэдд, Вирджиния Мэдсен, Изабелла Росселлини, Даша Поланко, Сьюзэн Луччи, Лаура Райт


Режиссёр
» Дэвид О. Расселл

» «Джой» - это волнующая история четырех поколений семьи. В центре сюжета – девушка Джой, превращающаяся в женщину, которая становится основательницей бизнес-династии и ее главой. Предательство и измена, потеря невинности и шрамы любви открывают дорогу в эмоциональную комедию о том, как стать истинным лидером семьи, и о том, как любое предприятие неумолимо сталкивается с миром коммерции. Союзники и противники меняются местами как внутри, так и вне семьи, и только внутренние переживания и неистовое воображение Джой помогают ей пройти через поджидающие ее жизненные бури. Как и все предыдущие фильмы Дэвида О. Расселла «Джой» бросает вызов жанровому кино, чтобы рассказать историю семьи, преданности и любви.


• Качество » BDRip 1080p
• Формат » mkv
• Видео кодек » AVC
• Аудио кодек » DTS
• Видео » 1920x1032, 10996 Kbit/s, 23.976 fps
• Аудио » Русский (DTS / 6 ch / 768 kbps / 48,0 КГц / 16 bit )
• Аудио » Английский (DTS / 6 ch / 1510 kbps / 48,0 КГц / 16 bit)



Бюджет: $60 000 000
Сборы в США:$56 451 232
Сборы в мире: + $44 632 277 = $101 083 509
Сборы в России:$545 687
Премьера (мир):24 декабря 2015
Премьера (РФ):21 января 2016, «Двадцатый Век Фокс СНГ»
Общее
Уникальный идентификатор : 232672364329547605589732618026780050784 (0xAF0B113F1E646A2B89FCE8062679C560)
Полное имя : F:VideoJoy.2015.BDRip.1080p.ExKinoRay.mkv
Формат : Matroska
Версия формата : Version 4 / Version 2
Размер файла : 11,5 Гбайт
Продолжительность : 2 ч. 4 м.
Общий поток : 13,3 Мбит/сек
Название фильма : Joy.2015.BDRip.1080p.ExKinoRay
Дата кодирования : UTC 2016-04-22 18:04:40
Программа кодирования : mkvmerge v8.3.0 ('Over the Horizon') 64bit
Библиотека кодирования : libebml v1.3.1 + libmatroska v1.4.2

Видео
Идентификатор : 1
Формат : AVC
Формат/Информация : Advanced Video Codec
Профиль формата : High@L4.1
Параметр CABAC формата : Да
Параметр ReFrames формата : 4 кадра
Идентификатор кодека : V_MPEG4/ISO/AVC
Продолжительность : 2 ч. 4 м.
Битрейт : 11,0 Мбит/сек
Ширина : 1920 пикселей
Высота : 1032 пикселя
Соотношение сторон : 1,85:1
Режим частоты кадров : Постоянный
Частота кадров : 23,976 (24000/1001) кадра/сек
Цветовое пространство : YUV
Субдискретизация насыщенности : 4:2:0
Битовая глубина : 8 бит
Тип развёртки : Прогрессивная
Бит/(Пиксели*Кадры) : 0.231
Размер потока : 9,52 Гбайт (83%)
Библиотека кодирования : x264 core 146 r2538 121396c
Настройки программы : cabac=1 / ref=4 / deblock=1:-3:-2 / analyse=0x3:0x133 / me=umh / subme=11 / psy=1 / psy_rd=1.00:0.00 / mixed_ref=1 / me_range=48 / chroma_me=1 / trellis=2 / 8x8dct=1 / cqm=0 / deadzone=21,11 / fast_pskip=0 / chroma_qp_offset=-2 / threads=6 / lookahead_threads=1 / sliced_threads=0 / nr=0 / decimate=0 / interlaced=0 / bluray_compat=0 / constrained_intra=0 / bframes=9 / b_pyramid=2 / b_adapt=2 / b_bias=0 / direct=3 / weightb=1 / open_gop=0 / weightp=2 / keyint=240 / keyint_min=23 / scenecut=40 / intra_refresh=0 / rc_lookahead=60 / rc=2pass / mbtree=1 / bitrate=10996 / ratetol=1.0 / qcomp=0.60 / qpmin=0 / qpmax=69 / qpstep=4 / cplxblur=20.0 / qblur=0.5 / vbv_maxrate=62500 / vbv_bufsize=78125 / nal_hrd=none / filler=0 / ip_ratio=1.40 / aq=1:0.80
Язык : English
Default : Да
Forced : Нет

Аудио #1
Идентификатор : 2
Формат : DTS
Формат/Информация : Digital Theater Systems
Режим : 16
Параметр Endianness формата : Big
Идентификатор кодека : A_DTS
Продолжительность : 2 ч. 4 м.
Вид битрейта : Постоянный
Битрейт : 768 Кбит/сек
Каналы : 6 каналов
Расположение каналов : Front: L C R, Side: L R, LFE
Частота : 48,0 КГц
Частота кадров : 93,750 кадра/сек (512 spf)
Битовая глубина : 24 бит
Метод сжатия : С потерями
Размер потока : 681 Мбайт (6%)
Заголовок : DUB [License Blu-ray EUR]
Язык : Russian
Default : Да
Forced : Нет

Аудио #2
Идентификатор : 3
Формат : DTS
Формат/Информация : Digital Theater Systems
Режим : 16
Параметр Endianness формата : Big
Идентификатор кодека : A_DTS
Продолжительность : 2 ч. 4 м.
Вид битрейта : Постоянный
Битрейт : 1509 Кбит/сек
Каналы : 6 каналов
Расположение каналов : Front: L C R, Side: L R, LFE
Частота : 48,0 КГц
Частота кадров : 93,750 кадра/сек (512 spf)
Битовая глубина : 24 бит
Метод сжатия : С потерями
Размер потока : 1,31 Гбайт (11%)
Язык : English
Default : Нет
Forced : Нет

Текст #1
Идентификатор : 4
Формат : UTF-8
Идентификатор кодека : S_TEXT/UTF8
Идентификатор кодека/Информация : UTF-8 Plain Text
Продолжительность : 2 ч. 3 м.
Битрейт : 113 бит/сек
Count of elements : 1991
Размер потока : 102 Кбайт (0%)
Язык : Russian
Default : Нет
Forced : Нет

Текст #2
Идентификатор : 5
Формат : UTF-8
Идентификатор кодека : S_TEXT/UTF8
Идентификатор кодека/Информация : UTF-8 Plain Text
Продолжительность : 2 ч. 3 м.
Битрейт : 132 бит/сек
Count of elements : 2031
Размер потока : 119 Кбайт (0%)
Язык : Ukrainian
Default : Нет
Forced : Нет

Текст #3
Идентификатор : 6
Формат : UTF-8
Идентификатор кодека : S_TEXT/UTF8
Идентификатор кодека/Информация : UTF-8 Plain Text
Продолжительность : 1 ч. 55 м.
Битрейт : 85 бит/сек
Count of elements : 2008
Размер потока : 71,9 Кбайт (0%)
Язык : English
Default : Нет
Forced : Нет

Меню
00:00:00.000 : en:00:00:00.000
00:06:14.082 : en:00:06:14.082
00:09:54.093 : en:00:09:54.093
00:13:43.031 : en:00:13:43.031
00:19:26.749 : en:00:19:26.749
00:22:54.832 : en:00:22:54.832
00:28:09.313 : en:00:28:09.313
00:32:45.672 : en:00:32:45.672
00:36:53.628 : en:00:36:53.628
00:44:02.807 : en:00:44:02.807
00:48:17.019 : en:00:48:17.019
00:53:25.828 : en:00:53:25.828
00:56:57.914 : en:00:56:57.914
01:01:13.128 : en:01:01:13.128
01:06:48.671 : en:01:06:48.671
01:12:52.493 : en:01:12:52.493
01:16:56.445 : en:01:16:56.445
01:20:53.766 : en:01:20:53.766
01:26:14.211 : en:01:26:14.211
01:30:24.836 : en:01:30:24.836
01:35:51.079 : en:01:35:51.079
01:41:28.708 : en:01:41:28.708
01:47:24.355 : en:01:47:24.355
01:53:58.623 : en:01:53:58.623
[/code]
скриншот   скриншот   скриншот   скриншот   скриншот   скриншот  
pb.wtf



Скачать Джой через торрент http://i74.fastpic.ru/big/2015/1218/b5/c39d072d168dbcde95d1a17f670689b5.gif Скачать фильм Джой через торрент бесплантно в хорошем качестве В ролях » Дженнифер Лоуренс, Роберт Де Ниро, Брэдли Купер, Эдгар Рамирес, Дайан Лэдд, Вирджиния Мэдсен, Изабелла Росселлини, Даша Поланко, ... 9.8 10 6
Торрент: Зарегистрирован [2016-04-23 10:49] · скачан: 104 раз
Статус: √ проверено
Размер: 11.49 GB
Как cкачать? Как скачать Джой через торрент | qTorrent

% Раздел Тема Автор DL S | L
Фильмы 2009 [ 2.18 GB ] Солист / The Soloist [2009 биография музыка BDRip [ ] KEYS Скачать
1 | 0
Фильмы (Blu-ray, BD-Remux, HDDVD) [ 29.92 GB ] Киллер Джо / Killer Joe [2011 BDRemux 1080p] Dub + DVO + Original + Subs Ворон Скачать
1 | 0
Зарубежные сериалы [ 5.37 GB ] От заката до рассвета / From Dusk Till Dawn: The Series / Сезон: 1 / 1-10 серии из 10 [ 2014 WEB-DLRip ]MVO GEKADOL Скачать
1 | 0
Фильмы 2006-2008 [ 2.18 GB ] Козырные тузы / Smokin' Aces /Джо Карнахан / Joe Carnahan) [2006 BDRip DUB + Оригинал] Aironhald Скачать
1 | 0
Зарубежные сериалы [ 2.31 GB ] Агент Картер / Agent Carter / Сезон: 1 / Серии 1-8 из 8 [2015 WEB-DLRip] MVO [LostFilm] GEKADOL Скачать
1 | 0
Фильмы 2014 [DVDrip, WEB-DLRip, HDrip] [ 2.73 GB ] Первый мститель: Другая война / Captain America: The Winter Soldier [2014 HDRip] DUB Ворон Скачать
1 | 0
Зарубежные сериалы [ 9.67 GB ] Чёрный список / The Blacklist / Сезон: 1 / Серии 1-22 из 22 [ 2013-2014 WEB-DLRip ] DVO GEKADOL Скачать
1 | 0

28-11-2019 20:33  

Отключить всю рекламу на сайте

    Дорогой пользователь! Огромная просьба, поблагодарите релизера, оцените раздачу и оставьте свои комментарий, если Вы скачали Джой через торрент бесплатно! Внесите свою лепту в развитие PiratBit!
    Комментировать посты могут только пользователи прошедшие не сложную регистрацию
    Показать сообщения:    

    Джой через торрент
    Скачать бесплатно Джой
    Джой скачать торрент
    Джой смотреть онлайн
    Cкачать фильм Джой бесплатно
    Джой скачать торрент в хорошем качестве
    Джой смотреть онлайн бесплатно в хорошем качестве


    Вы не можете начинать темы
    Вы не можете отвечать на сообщения
    Вы не можете редактировать свои сообщения
    Вы не можете удалять свои сообщения
    Вы не можете голосовать в опросах
    Вы не можете прикреплять файлы к сообщениям
    Вы можете скачивать файлы