MEGA NEWS Получи личный уникальный адрес сайта и защити себя от блокировок. Внимание количество ограничено!!!

iTunes

1+1

iTunes

мы

iTunes

1

iTunes

Чернобыль

iTunes

Ральф против интернета

Лицензия

ПШазам

Лицензия

Игра престолов

Лицензия

30
pack

ВАЖНО

!!Акция!!

Alien_RageХит недели

RePack

Resident Evil 21

ИГРА 18+

pack

RePack

Metro:Exodus

!!Акция!!

Alien_Rage

RePack

fifa19

RePack

Assassins Creed: Odyssey

RePack

NEED FOR SPEED™ PAYBACK

3 сезон

9 сезон

Бесстыжие 9 сезон

Все сериалы

все сериалы на PB.wtf

RePack

FAR CRY 5
Ребята, катастрофически не хватает 1900р. для оплаты серверов за АВГУСТ (всвязи с блокировками трафик упал в 3 раза), 1-2р., выручайте.
  

Крампус / Krampus (Майкл Догерти / Michael Dougherty) [2015, США, Новая Зеландия, ужасы, фэнтези, комедия, BDRip-AVC от sokol_ok] DUB Лицензия pb.wtf

Крампус через торрент pb.wtf

Раздают: 1 [ 0 KB/s ]
Размер: 746 MB | Добавлен: 3 года 5 мес. назад | Торрент скачан:189 раз
Скачать  

24-04-2016 12:18 Крампус Скачать торрент  

Крампус
Krampus

«В этом году Санта Клаус не придёт»


Страна: США, Новая Зеландия
Жанр: ужасы, фэнтези, комедия

Год выпуска: 2015
Продолжительность: 01:37:40

Перевод: Профессиональный (полное дублирование) [Лицензия Blu-ray CEE]
Субтитры: русские (форсированные, полные), английские (форсированные, полные, SDH)
Оригинальная аудиодорожка: нет

Режиссер: Майкл Догерти / Michael Dougherty

В ролях: Эмджей Энтони, Адам Скотт, Тони Коллетт, Стефания Оуэн, Криста Штадлер, Кончата Феррелл, Эллисон Толман, Дэвид Кокнер, Маверик Флэк, Куеени Сэмюэл, Лоло Оуэн, Sage Hunefeld

Описание:
История о демоне, который во время Рождества выискивает непослушных детей, чтобы наказать их. Релиз:

Автор рипа: Stalker oK

Сэмпл

Качество видео: BDRip-AVC [HDCLUB / Blu-ray Disc / 1080p]
Формат видео: MKV
Видео кодек: AVC
Аудио кодек: AAC
Видео: 1002 Кбит/сек, 750*314 (2,40:1), в 23,976 (24000/1001) кадра/сек, AVC
Аудио: русский, 64,0 Кбит/сек, 48,0 КГц / 24,0 КГц, 2 канала, AAC (HE-AAC / LC)
Навигация по главам: есть

Общее
Уникальный идентификатор : 243659730750918877887740705124291441007 (0xB74F283C41DADF0F84272E2F044FF16F)
Полное имя : M:\1Rips\Krampus\Krampus.2015.BDRip-AVC.Dub.745Mb.stalkerok.new-team.mkv
Формат : Matroska
Версия формата : Version 4 / Version 2
Размер файла : 746 Мбайт
Продолжительность : 1 ч. 37 м.
Общий поток : 1068 Кбит/сек
Название фильма : Krampus (2015) (New-Team) (Rip by Stalker oK)
Дата кодирования : UTC 2016-04-24 11:55:33
Программа кодирования : mkvmerge v8.6.1 ('Flying') 64bit
Библиотека кодирования : libebml v1.3.3 + libmatroska v1.4.4

Видео
Идентификатор : 1
Формат : AVC
Формат/Информация : Advanced Video Codec
Профиль формата : High@L4.1
Параметр CABAC формата : Да
Параметр ReFrames формата : 16 кадров
Идентификатор кодека : V_MPEG4/ISO/AVC
Продолжительность : 1 ч. 37 м.
Битрейт : 1002 Кбит/сек
Ширина : 750 пикселей
Высота : 314 пикселей
Соотношение сторон : 2,40:1
Режим частоты кадров : Постоянный
Частота кадров : 23,976 (24000/1001) кадра/сек
Цветовое пространство : YUV
Субдискретизация насыщенности : 4:2:0
Битовая глубина : 8 бит
Тип развёртки : Прогрессивная
Бит/(Пиксели*Кадры) : 0.177
Размер потока : 700 Мбайт (94%)
Заголовок : Krampus (2015) (New-Team) (Rip by Stalker oK)
Библиотека кодирования : x264 core 148 r2665kMod a01e339
Настройки программы : cabac=1 / ref=16 / deblock=1:-3:-3 / analyse=0x3:0x133 / me=umh / subme=11 / psy=1 / fade_compensate=0.00 / psy_rd=1.00:0.05 / mixed_ref=1 / me_range=48 / chroma_me=1 / trellis=2 / 8x8dct=1 / cqm=0 / deadzone=21,11 / fast_pskip=0 / chroma_qp_offset=-3 / threads=10 / lookahead_threads=2 / sliced_threads=0 / nr=0 / decimate=0 / interlaced=0 / bluray_compat=0 / constrained_intra=0 / fgo=0 / bframes=16 / b_pyramid=2 / b_adapt=2 / b_bias=0 / direct=3 / weightb=1 / open_gop=0 / weightp=2 / keyint=240 / keyint_min=23 / scenecut=40 / intra_refresh=0 / rc_lookahead=60 / rc=2pass / mbtree=0 / bitrate=1002 / ratetol=1.0 / qcomp=0.70 / qpmin=0 / qpmax=69 / qpstep=4 / cplxblur=20.0 / qblur=0.5 / vbv_maxrate=50000 / vbv_bufsize=62500 / nal_hrd=none / filler=0 / ip_ratio=1.40 / pb_ratio=1.30 / aq=3:0.95
Default : Да
Forced : Нет

Аудио
Идентификатор : 2
Формат : AAC
Формат/Информация : Advanced Audio Codec
Профиль формата : HE-AAC / LC
Идентификатор кодека : A_AAC
Продолжительность : 1 ч. 37 м.
Битрейт : 64,0 Кбит/сек
Каналы : 2 канала
Расположение каналов : Front: L R
Частота : 48,0 КГц / 24,0 КГц
Частота кадров : 23,438 кадра/сек (1024 spf)
Метод сжатия : С потерями
Задержка видео : 31 мс.
Размер потока : 44,7 Мбайт (6%)
Язык : Russian
Default : Да
Forced : Нет

Текст #1
Идентификатор : 3
Формат : UTF-8
Идентификатор кодека : S_TEXT/UTF8
Идентификатор кодека/Информация : UTF-8 Plain Text
Продолжительность : 1 ч. 30 м.
Битрейт : 1 бит/сек
Count of elements : 24
Размер потока : 1,06 Кбайт (0%)
Заголовок : Forced
Язык : Russian
Default : Да
Forced : Нет

Текст #2
Идентификатор : 4
Формат : UTF-8
Идентификатор кодека : S_TEXT/UTF8
Идентификатор кодека/Информация : UTF-8 Plain Text
Продолжительность : 1 ч. 30 м.
Битрейт : 77 бит/сек
Count of elements : 1124
Размер потока : 51,5 Кбайт (0%)
Язык : Russian
Default : Нет
Forced : Нет

Текст #3
Идентификатор : 5
Формат : UTF-8
Идентификатор кодека : S_TEXT/UTF8
Идентификатор кодека/Информация : UTF-8 Plain Text
Продолжительность : 1 ч. 7 м.
Битрейт : 0 бит/сек
Count of elements : 10
Размер потока : 319 байт (0%)
Заголовок : Forced
Язык : English
Default : Нет
Forced : Нет

Текст #4
Идентификатор : 6
Формат : UTF-8
Идентификатор кодека : S_TEXT/UTF8
Идентификатор кодека/Информация : UTF-8 Plain Text
Продолжительность : 1 ч. 28 м.
Битрейт : 48 бит/сек
Count of elements : 1172
Размер потока : 31,4 Кбайт (0%)
Язык : English
Default : Нет
Forced : Нет

Текст #5
Идентификатор : 7
Формат : UTF-8
Идентификатор кодека : S_TEXT/UTF8
Идентификатор кодека/Информация : UTF-8 Plain Text
Продолжительность : 1 ч. 35 м.
Битрейт : 54 бит/сек
Count of elements : 1447
Размер потока : 38,0 Кбайт (0%)
Заголовок : SDH
Язык : English
Default : Нет
Forced : Нет

Меню
00:00:00.000 : en:Chapter 1
00:03:20.325 : en:Chapter 2
00:07:16.686 : en:Chapter 3
00:14:18.066 : en:Chapter 4
00:20:02.493 : en:Chapter 5
00:27:26.603 : en:Chapter 6
00:34:15.845 : en:Chapter 7
00:37:44.304 : en:Chapter 8
00:42:01.394 : en:Chapter 9
00:45:11.959 : en:Chapter 10
00:50:29.860 : en:Chapter 11
00:56:07.155 : en:Chapter 12
01:00:24.412 : en:Chapter 13
01:05:34.931 : en:Chapter 14
01:09:58.945 : en:Chapter 15
01:14:38.349 : en:Chapter 16
01:18:30.039 : en:Chapter 17
01:23:17.659 : en:Chapter 18
01:27:44.634 : en:Chapter 19
01:32:27.667 : en:Chapter 20
pb.wtf



Скачать Крампус через торрент http://i72.fastpic.ru/big/2015/0531/46/68ef8a2783b58e5344cc30bbd3f1b046.png Скачать фильм Крампус через торрент бесплантно в хорошем качестве Описание:История о демоне, который во время Рождества выискивает непослушных детей, чтобы наказать их. Релиз: Автор рипа: Stalker ... 7 10 5
Info! Золотая раздача, скачанное не засчитывается.
Торрент: Зарегистрирован [2016-04-24 12:18] · скачан: 189 раз
Статус: √ проверено
Размер: 746 MB
Как cкачать? Как скачать Крампус через торрент | qTorrent

% Раздел Тема Автор DL S | L
Фильмы 2015 [DVDrip, WEB-DLRip, HDrip] [ 1.45 GB ] Крампус / Krampus [2015 HDRip] DUB [] bober100 Скачать
1 | 0
Фильмы 2015 [DVDrip, WEB-DLRip, HDrip] [ 2.18 GB ] Крампус / Krampus [2015 Новая Зеландия BDRip-AVC от sokol_ok] DUB sokol_ok Скачать
2 | 0
Фильмы 2015 [DVDrip, WEB-DLRip, HDrip] [ 1.46 GB ] Крампус / Krampus [2015 Новая Зеландия BDRip-AVC от sokol_ok] DUB sokol_ok Скачать
2 | 0
Фильмы 2015 [DVDrip, WEB-DLRip, HDrip] [ 1.46 GB ] Крампус / Krampus [2015 BDRip-AVC] DUB potroks Скачать
1 | 0
Фильмы 2015 [DVDrip, WEB-DLRip, HDrip] [ 2.18 GB ] Крампус / Krampus [2015 BDRip-AVC] DUB potroks Скачать
1 | 0
Фильмы 2015 [DVDrip, WEB-DLRip, HDrip] [ 1.37 GB ] Крампус / Krampus [2015 WEB-DLRip] killermax2013 Скачать
1 | 0
Фильмы (WEB-DL 720p, 1080p) [ 3 GB ] Крампус / Krampus [2015 WEB-DL 720p] $-DRON-$ Скачать
2 | 0


>> Регистрируемся здесь <<






Отзывы и комментарии о схеме читаем и пишем здесь: ---> Отзывы и комментарии о схеме

Новые благодарочки в телеграм довольных пользователей:
скриншот   скриншот   скриншот   скриншот   скриншот

24-04-2016 12:46 Крампус Скачать торрент  

Нормальный фильм, для домашнего просмотра сойдет ( когда нечего больше смотреть ) pb.wtf



    Дорогой пользователь! Огромная просьба, поблагодарите релизера, оцените раздачу и оставьте свои комментарий, если Вы скачали Крампус через торрент бесплатно! Внесите свою лепту в развитие PiratBit!
    Комментировать посты могут только пользователи прошедшие не сложную регистрацию
    Показать сообщения:    

    Крампус через торрент
    Скачать бесплатно Крампус
    Крампус скачать торрент
    Крампус смотреть онлайн
    Cкачать фильм Крампус бесплатно
    Крампус скачать торрент в хорошем качестве
    Крампус смотреть онлайн бесплатно в хорошем качестве


    Вы не можете начинать темы
    Вы не можете отвечать на сообщения
    Вы не можете редактировать свои сообщения
    Вы не можете удалять свои сообщения
    Вы не можете голосовать в опросах
    Вы не можете прикреплять файлы к сообщениям
    Вы можете скачивать файлы