Всегда рабочее зеркало без VPN и Proxy просто перед .vidak.icu напиши любое слово или цифру, Пример http://flso.vidak.icu

MVO

Лицензия

1 сезон

1

1 сезон

iTunes

1 сезон

13

1 сезон

Deluxe

pack

Рекомендуем

Repack

30

ВАЖНО

RePack

MK11

RePack

jed

RePack

fifa19

RePack

RDR2

RePack

NEED FOR SPEED™ PAYBACK

Кинопоиск HD

6 сезон

 Острые козырьки 6 сезон

Все сериалы

все сериалы на PB.wtf

RePack

FAR CRY 5
  
Magnet ссылка

Турбо / Turbo (Дэвид Сорен / David Soren) [2013, мультфильм, комедия, приключения, BDRip 1080p от potroks] DUB Лицензия pb.wtf

Турбо через торрент pb.wtf

Раздают: 2 [ 0 KB/s ]
Размер: 5.01 GB | Добавлен: 6 лет 2 мес. назад | Торрент скачан:187 раз
Смотреть онлайн Турбо | Скачать    Ребята, помогите собрать деньги на оплату серверов!!!

24-04-2016 12:59 Турбо Скачать торрент  

Турбо / Turbo
«Быстрее, еще быстрее!»
Год выпуска: 2013
Страна: США / DreamWorks Animation
Жанр: мультфильм, комедия, приключения, семейный, спорт
Продолжительность: 01:35:40
Перевод: Дубляж [BD EUR]
Субтитры: русские (форс), русские (х2), украинские, английские (Full + SDH)
Навигация по главам: есть
Режиссер: Дэвид Сорен / David Soren
В ролях:

Райан Рейнольдс (Turbo, озвучка), Пол Джаматти (Chet, озвучка), Майкл Пенья (Tito, озвучка), Снуп Догг (Smoove Move, озвучка), Майя Рудольф (Burn, озвучка), Мишель Родригес (Paz, озвучка), Сэмюэл Л. Джексон (Whiplash, озвучка), Луис Гусман (Angelo, озвучка), Билл Хейдер (Guy Gagné, озвучка), Бен Шварц (Skidmark, озвучка), Ричард Дженкинс (Bobby, озвучка), Кен Жонг (Kim Ly, озвучка)
Описание: Ничто так не раздражает темпераментную, мечтающую о скорости улитку с говорящим именем Турбо, как неспешная жизнь, медленные разговоры, заторможенные соседи. Пусть наш герой выглядит большим чудаком в этом вялом, неторопливом мире, пусть он идёт вопреки закону природы о «рождённом ползать», но если в сердце горит «пламенный мотор», а душа верит в чудо, оно просто не имеет права не произойти!

Качество: BDRip 1080p
Формат: MKV
Видео кодек: AVC
Аудио кодек: AC3, DTS
Видео: 1920x816 (2.35:1), 4770 kbps, 23,976 fps, 0,127 bit/pixel
Аудио №1: DTS / 5.1 / 48 kHz / 768 kbps / 24 bit | RUS
Аудио №2: DTS / 5.1 / 48 kHz / 1510 kbps / 24 bit | ENG
Аудио №3: AC3 / 5.1 / 48 kHz / 448 kbps / 16 bit | UKR

Код:

General
Unique ID                   : 226960535961563304631293560907154688669 (0xAABF025D91C166798A26B948A7618A9D)
Complete name               : Turbo.2013.TRIPLE.BDRip.1080p.DTS-HELLYWOOD.mkv
Format                      : Matroska
Format version              : Version 4 / Version 2
File size                   : 5.01 GiB
Duration                    : 1h 35mn
Overall bit rate            : 7 498 Kbps
Movie name                  : HELLYWOOD - rip by potroks
Encoded date                : UTC 2013-10-28 19:22:36
Writing application         : mkvmerge v5.9.0 ('On The Loose') built on Dec 15 2012 16:39:58
Writing library             : libebml v1.3.0 + libmatroska v1.4.0

Video
ID                          : 1
Format                      : AVC
Format/Info                 : Advanced Video Codec
Format profile              : [email protected]
Format settings, CABAC      : Yes
Format settings, ReFrames   : 4 frames
Codec ID                    : V_MPEG4/ISO/AVC
Duration                    : 1h 35mn
Bit rate                    : 4 770 Kbps
Width                       : 1 920 pixels
Height                      : 816 pixels
Display aspect ratio        : 2.35:1
Frame rate mode             : Constant
Frame rate                  : 23.976 fps
Color space                 : YUV
Chroma subsampling          : 4:2:0
Bit depth                   : 8 bits
Scan type                   : Progressive
Bits/(Pixel*Frame)          : 0.127
Stream size                 : 3.09 GiB (62%)
Title                       : Turbo
Writing library             : x264 core 130 r2273 b3065e6
Encoding settings           : cabac=1 / ref=4 / deblock=1:-1:-1 / analyse=0x3:0x133 / me=umh / subme=11 / psy=1 / psy_rd=1.09:0.01 / mixed_ref=1 / me_range=32 / chroma_me=1 / trellis=2 / 8x8dct=1 / cqm=0 / deadzone=21,11 / fast_pskip=0 / chroma_qp_offset=-3 / threads=9 / lookahead_threads=1 / sliced_threads=0 / nr=0 / decimate=0 / interlaced=0 / bluray_compat=0 / constrained_intra=0 / bframes=5 / b_pyramid=2 / b_adapt=2 / b_bias=0 / direct=3 / weightb=1 / open_gop=0 / weightp=2 / keyint=250 / keyint_min=23 / scenecut=40 / intra_refresh=0 / rc_lookahead=60 / rc=2pass / mbtree=0 / bitrate=4770 / ratetol=1.0 / qcomp=0.70 / qpmin=0 / qpmax=69 / qpstep=4 / cplxblur=20.0 / qblur=0.5 / vbv_maxrate=50000 / vbv_bufsize=62500 / nal_hrd=none / ip_ratio=1.35 / pb_ratio=1.30 / aq=1:0.70
Language                    : English
Default                     : Yes
Forced                      : No

Audio #1
ID                          : 2
Format                      : DTS
Format/Info                 : Digital Theater Systems
Mode                        : 16
Format settings, Endianness : Big
Codec ID                    : A_DTS
Duration                    : 1h 35mn
Bit rate mode               : Constant
Bit rate                    : 768 Kbps
Channel(s)                  : 6 channels
Channel positions           : Front: L C R, Side: L R, LFE
Sampling rate               : 48.0 KHz
Frame rate                  : 93.750 fps (512 spf)
Bit depth                   : 24 bits
Compression mode            : Lossy
Stream size                 : 526 MiB (10%)
Title                       : Dub | DTS @ 768 kbps - BD EUR
Language                    : Russian
Default                     : Yes
Forced                      : Yes

Audio #2
ID                          : 3
Format                      : DTS
Format/Info                 : Digital Theater Systems
Mode                        : 16
Format settings, Endianness : Big
Codec ID                    : A_DTS
Duration                    : 1h 35mn
Bit rate mode               : Constant
Bit rate                    : 1 510 Kbps
Channel(s)                  : 6 channels
Channel positions           : Front: L C R, Side: L R, LFE
Sampling rate               : 48.0 KHz
Frame rate                  : 93.750 fps (512 spf)
Bit depth                   : 24 bits
Compression mode            : Lossy
Stream size                 : 1.01 GiB (20%)
Title                       : Original | DTS @ 1510 kbps - BD EUR
Language                    : English
Default                     : No
Forced                      : No

Audio #3
ID                          : 4
Format                      : AC-3
Format/Info                 : Audio Coding 3
Mode extension              : CM (complete main)
Format settings, Endianness : Big
Codec ID                    : A_AC3
Duration                    : 1h 35mn
Bit rate mode               : Constant
Bit rate                    : 448 Kbps
Channel(s)                  : 6 channels
Channel positions           : Front: L C R, Side: L R, LFE
Sampling rate               : 48.0 KHz
Frame rate                  : 31.250 fps (1536 spf)
Compression mode            : Lossy
Stream size                 : 307 MiB (6%)
Title                       : Dub | DD 5.1 @ 448 kbps - BD EUR
Language                    : Ukrainian
Default                     : No
Forced                      : No

Text #1
ID                          : 5
Format                      : UTF-8
Codec ID                    : S_TEXT/UTF8
Codec ID/Info               : UTF-8 Plain Text
Title                       : Forced
Language                    : Russian
Default                     : Yes
Forced                      : Yes

Text #2
ID                          : 6
Format                      : UTF-8
Codec ID                    : S_TEXT/UTF8
Codec ID/Info               : UTF-8 Plain Text
Title                       : v1
Language                    : Russian
Default                     : No
Forced                      : No

Text #3
ID                          : 7
Format                      : UTF-8
Codec ID                    : S_TEXT/UTF8
Codec ID/Info               : UTF-8 Plain Text
Title                       : v2
Language                    : Russian
Default                     : No
Forced                      : No

Text #4
ID                          : 8
Format                      : UTF-8
Codec ID                    : S_TEXT/UTF8
Codec ID/Info               : UTF-8 Plain Text
Language                    : Ukrainian
Default                     : No
Forced                      : No

Text #5
ID                          : 9
Format                      : UTF-8
Codec ID                    : S_TEXT/UTF8
Codec ID/Info               : UTF-8 Plain Text
Title                       : i
Language                    : English
Default                     : No
Forced                      : No

Text #6
ID                          : 10
Format                      : UTF-8
Codec ID                    : S_TEXT/UTF8
Codec ID/Info               : UTF-8 Plain Text
Title                       : SDH
Language                    : English
Default                     : No
Forced                      : No

Text #7
ID                          : 11
Format                      : UTF-8
Codec ID                    : S_TEXT/UTF8
Codec ID/Info               : UTF-8 Plain Text
Title                       : v1
Language                    : English
Default                     : No
Forced                      : No

Text #8
ID                          : 12
Format                      : UTF-8
Codec ID                    : S_TEXT/UTF8
Codec ID/Info               : UTF-8 Plain Text
Title                       : v2
Language                    : English
Default                     : No
Forced                      : No

Menu
00:00:00.000                : en:(01)00:00:00:000
00:03:29.626                : en:(02)00:03:29:626
00:06:39.857                : en:(03)00:06:39:857
00:08:34.222                : en:(04)00:08:34:222
00:10:13.863                : en:(05)00:10:13:863
00:13:25.095                : en:(06)00:13:25:095
00:17:15.784                : en:(07)00:17:15:784
00:21:53.353                : en:(08)00:21:53:353
00:25:42.707                : en:(09)00:25:42:707
00:28:24.494                : en:(10)00:28:24:494
00:30:17.899                : en:(11)00:30:17:899
00:34:20.892                : en:(12)00:34:20:892
00:38:20.339                : en:(13)00:38:20:339
00:40:45.109                : en:(14)00:40:45:109
00:44:40.219                : en:(15)00:44:40:219
00:47:40.941                : en:(16)00:47:40:941
00:49:29.925                : en:(17)00:49:29:925
00:53:28.955                : en:(18)00:53:28:955
00:57:00.750                : en:(19)00:57:00:750
00:59:38.825                : en:(20)00:59:38:825
01:02:05.972                : en:(21)01:02:05:972
01:05:50.780                : en:(22)01:05:50:780
01:08:07.166                : en:(23)01:08:07:166
01:13:08.801                : en:(24)01:13:08:801
01:16:26.790                : en:(25)01:16:26:790
01:19:48.450                : en:(26)01:19:48:450
01:23:26.126                : en:(27)01:23:26:126
01:26:29.726                : en:(28)01:26:29:726
01:35:40.484                : en:(29)01:35:40:484

pb.wtf



Скачать Турбо через торрент http://i80.fastpic.ru/big/2016/0424/53/1c40ae22ed657abcde4090237bfa5a53.png Скачать, смотреть онлайн Турбо бесплантно в хорошем качестве Описание: Ничто так не раздражает темпераментную, мечтающую о скорости улитку с говорящим именем Турбо, как неспешная жизнь, медленные ... 9.6 10 15
Info! Золотая раздача, скачанное не засчитывается.
Торрент: Зарегистрирован [2016-04-24 12:59] · скачан: 187 раз
Статус: √ проверено
Размер: 5.01 GB
Как cкачать? Как скачать Турбо через торрент | UTorrent

% Раздел Тема Автор DL S | L
Иностранные мультфильмы [ 1.46 GB ] Турбо / Turbo [2013 мультфильм HDRip-AVC] DUB [] от R.G. PiratFilms Demonessa Скачать
1 | 0
Зарубежные Мультфильмы (BDRip 1080p, 720p, Blu-ray, BD-Remux) [ 7.64 GB ] Турбо / Turbo [2013 мультфильм BDRip 1080р DUB] [] лисяра Скачать
1 | 0
Зарубежные Мультфильмы (BDRip 1080p, 720p, Blu-ray, BD-Remux) [ 4.62 GB ] Турбо / Turbo [2013 мультфильм BDRip 720р DUB] [] лисяра Скачать
1 | 0

28-11-2019 20:33  

Отключить всю рекламу на сайте

29-04-2016 20:17 Турбо Скачать торрент  

Отличная раздача - спасиба!!!

A2906 писал(а):

Только на хохляцком мульт! укро раздатчик чтоли?

pb.wtf



18-07-2016 01:45 Турбо Скачать торрент  

Мульт весьма неплохой для семейного просмотра самое то)pb.wtf



    Дорогой пользователь! Огромная просьба, поблагодарите релизера, оцените раздачу и оставьте свои комментарий, если Вы скачали Турбо через торрент бесплатно!
    Комментировать посты могут только пользователи прошедшие не сложную регистрацию
    Показать сообщения:    

    Турбо через торрент
    Скачать бесплатно Турбо
    Турбо скачать торрент
    Турбо смотреть онлайн
    Cкачать фильм Турбо бесплатно
    Турбо скачать торрент в хорошем качестве
    Турбо смотреть онлайн бесплатно в хорошем качестве


    Вы не можете начинать темы
    Вы не можете отвечать на сообщения
    Вы не можете редактировать свои сообщения
    Вы не можете удалять свои сообщения
    Вы не можете голосовать в опросах
    Вы не можете прикреплять файлы к сообщениям
    Вы можете скачивать файлы