Присоединяйтесь к нам в Telegram!, здесь всегда актуальный адрес сайта, оперативная поддержка и многое другое!!

>

5.9

iTunes

7.4

iTunes

9.4

1 сезон

1

7.4

2 сезон

7.2

iTunes

7.3

1 сезон

13

6.1

iTunes

8.3

GOG

30

ULTIMATE

pack

9.9

Лицензия

ВАЖНО

ИГРА 18+

pack

7.3

RePack

MK11

7.7

RePack

jed

7.8

RePack

fifa19

8.5

RePack

RDR2

RePack

NEED FOR SPEED™ PAYBACK

5 сезон

9 сезон

Бесстыжие 9 сезон

Все сериалы

все сериалы на PB.wtf

RePack

FAR CRY 5

Anonymous, доброе утро, мы катастрофически не успеваем собрать деньги на оплату серверов, помогите нам пожалуйста 5,10,15р., для нас важна любая помощь . В качестве благодарности мы отключим Вам всю рекламу на сайте (укажите свой ник в строку Ваше имя)!

×
  
Magnet ссылка

Iggy Azalea - Team [2016 г., Pop, HDTVRip 1080p] pb.wtf

Iggy Azalea - Team через торрент pb.wtf

Размер: 185 MB | Добавлен: 5 лет 7 мес. назад | Торрент скачан:30 раз
Смотреть онлайн Iggy Azalea - Team | Скачать    Ребята, помогите собрать деньги на оплату серверов!!!

24-04-2016 16:42 Iggy Azalea - Team Скачать торрент  

Iggy Azalea - Team
Год выпуска: 2016
Жанр: Pop
Продолжительность: 00:03:32
Качество:HDTVRip 1080p
Формат: MPEG4
Видео кодек: AVC
Аудио кодек:AAC
Видео: MPEG4 AVC, 1920x1080, 23,976 fps, 6979 kbps
Аудио#1: AAC 48,0 kHz, 2 ch, 320 kbps
Общее
Полное имя : Iggy Azalea - Team.mp4
Формат : MPEG-4
Профиль формата : Base Media / Version 2
Идентификатор кодека : mp42
Размер файла : 185 Мбайт
Продолжительность : 3 м. 32 с.
Режим общего битрейта : Переменный
Общий поток : 7304 Кбит/сек

Видео
Идентификатор : 1
Формат : AVC
Формат/Информация : Advanced Video Codec
Профиль формата : High@L4.0
Параметр CABAC формата : Да
Параметр ReFrames формата : 8 кадров
Идентификатор кодека : avc1
Идентификатор кодека/Информация : Advanced Video Coding
Продолжительность : 3 м. 32 с.
Продолжительность оригинала : 3 м. 32 с.
Вид битрейта : Переменный
Битрейт : 6979 Кбит/сек
Максимальный битрейт : 40,0 Мбит/сек
Ширина : 1920 пикселей
Высота : 1080 пикселей
Соотношение сторон : 16:9
Режим частоты кадров : Переменный
Частота кадров : 23,976 кадра/сек
Минимальная частота кадров : 23,974 кадра/сек
Максимальная частота кадров : 23,981 кадра/сек
Цветовое пространство : YUV
Субдискретизация насыщенности : 4:2:0
Битовая глубина : 8 бит
Тип развёртки : Прогрессивная
Бит/(Пиксели*Кадры) : 0.140
Размер потока : 177 Мбайт (96%)
Размер потока оригинала : 177 Мбайт (96%)
Язык : English
mdhd_Duration : 212671

Аудио
Идентификатор : 2
Формат : AAC
Формат/Информация : Advanced Audio Codec
Профиль формата : LC
Идентификатор кодека : 40
Продолжительность : 3 м. 32 с.
Продолжительность оригинала : 3 м. 32 с.
Вид битрейта : Переменный
Битрейт : 320 Кбит/сек
Каналы : 2 канала
Расположение каналов : Front: L R
Частота : 48,0 КГц
Метод сжатия : С потерями
Размер потока : 8,11 Мбайт (4%)
Размер потока оригинала : 8,12 Мбайт (4%)
Язык : English
mdhd_Duration : 212736
pb.wtf



Скачать Iggy Azalea - Team через торрент http://s015.radikal.ru/i332/1604/c3/f83ffa50d659.jpg Скачать, смотреть онлайн Iggy Azalea - Team [2016 г., Pop, HDTVRip 1080p] бесплантно в хорошем качестве Год выпуска: 2016Жанр: PopПродолжительность: ... 5.5 10 4
Торрент: Зарегистрирован [2016-04-24 16:42] · скачан: 30 раз
Статус: √ проверено
Размер: 185 MB
Как cкачать? Как скачать Iggy Azalea - Team через торрент | UTorrent

28-11-2019 20:33  

Отключить всю рекламу на сайте

    Дорогой пользователь! Огромная просьба, поблагодарите релизера, оцените раздачу и оставьте свои комментарий, если Вы скачали Iggy Azalea - Team через торрент бесплатно!
    Комментировать посты могут только пользователи прошедшие не сложную регистрацию
    Показать сообщения:    

    Iggy Azalea - Team через торрент
    Скачать бесплатно Iggy Azalea - Team
    Iggy Azalea - Team скачать торрент
    Iggy Azalea - Team смотреть онлайн
    Cкачать фильм Iggy Azalea - Team бесплатно
    Iggy Azalea - Team скачать торрент в хорошем качестве
    Iggy Azalea - Team смотреть онлайн бесплатно в хорошем качестве


    Вы не можете начинать темы
    Вы не можете отвечать на сообщения
    Вы не можете редактировать свои сообщения
    Вы не можете удалять свои сообщения
    Вы не можете голосовать в опросах
    Вы не можете прикреплять файлы к сообщениям
    Вы можете скачивать файлы