Ссылка на приватное зеркало всего за 1$. Внимание количество ограничено!!!

iTunes

iTunes

iTunes

1

iTunes

iTunes

iTunes

iTunes

iTunes

30
pack

$ от Little Big

ВАЖНО

!!Акция!!

Alien_RageХит недели

RePack

Resident Evil 21

ИГРА 18+

pack

RePack

jed

!!Акция!!

Alien_Rage

RePack

fifa19

RePack

Assassins Creed: Odyssey

RePack

NEED FOR SPEED™ PAYBACK

4 сезон

9 сезон

Бесстыжие 9 сезон

Все сериалы

все сериалы на PB.wtf

RePack

FAR CRY 5
  

Праведник в маске / The Masked Saint (Уоррен П. Сонода ) [2016, фэнтези, боевик, драма, WEB-DL 720p] / Любительский (двухголосый) pb.wtf

Праведник в маске через торрент pb.wtf

Размер: 2.91 GB | Добавлен: 4 года 2 мес. назад | Торрент скачан:92 раза
Скачать  

24-04-2016 21:06 Праведник в маске Скачать торрент  

Праведник в маске / The Masked Saint

Год выпуска: 2016
Страна: Канада
Жанр: фэнтези, боевик, драма, криминал, семейный, биография
Примечание: Присутствует реклама!
Продолжительность: 01:44:09
Перевод: Любительский (двухголосый)
Режиссер: Уоррен П. Сонода
В ролях: Бретт Гранстафф (Chris), Лара Джин Чоростецки (Michelle), Т.Дж. МакГиббон (Carrie Samuels), Дайэнн Кэррол (Ms. Edna), Родди Пайпер (Nicky Stone), Джеймс Роджерс (The Reaper), Майкл Шеннон Дженкинс (Det. Harper), Патрик МакКенна (Judd Lumpkin), Скотт Никол (Tim McDonald), Джоан Грегсон (Mrs. Beasley), Даниэль Бентон (Valerie), Дуэйн Мерфи (Jojo)
Описание:
История развивается вокруг бывшего профессионального рестлера Криса Сэмюэлса, который решил оставить ринг и стать пастором в небольшом городке, куда переехал вместе с женой и дочерью. Но когда герой воочию видит те проблемы, с которыми сталкивается его община, он решает бороться с несправедливостью так, как умеет. Крис вновь надевает маску и нарекает себя мстителем. А затем и вовсе возвращается к профессиональному рестлингу, чтобы собрать средства для церкви. Кажется, дела идут хорошо, но его секретная личность «карателя» и возобновившаяся карьера бойца затмевают истинное призвание – быть пастором. К тому же, за анонимным мстителем охотится полиция, а семья начинает подозревать неладное. Так чего же Крис Сэмюэлс хочет на самом деле?
Рейтинг:

MPAA: PG-13 - Детям до 13 лет просмотр не желателен
Качество: WEB-DL 720p
Формат: MKV
Видео: AVC, 1280x720 (16:9), 3542 kbps, 24 fps, 0,160 bpp
Аудио: AC3 / 2.0 / 48 kHz / 384 kbps / 16 bit






Код:

General
Unique ID                                : 205125299251929193660417439939610929899 (0x9A51B2140695E65F899B2F19B101EAEB)
Complete name                            : D:\С инета\The Masked Saint.2016.WEB-DL.720P.mkv
Format                                   : Matroska
Format version                           : Version 2
File size                                : 2.91 GiB
Duration                                 : 1h 44mn
Overall bit rate mode                    : Constant
Overall bit rate                         : 4 006 Kbps
Encoded date                             : UTC 2016-04-16 16:26:41
Writing application                      : mkvmerge v8.3.0 ('Over the Horizon') 64bit
Writing library                          : libebml v1.3.1 + libmatroska v1.4.2
DURATION                                 : 01:44:09.280000000
NUMBER_OF_FRAMES                         : 195290
NUMBER_OF_BYTES                          : 299965440
_STATISTICS_WRITING_APP                  : mkvmerge v8.3.0 ('Over the Horizon') 64bit
_STATISTICS_WRITING_DATE_UTC             : 2016-04-16 16:26:41
_STATISTICS_TAGS                         : BPS DURATION NUMBER_OF_FRAMES NUMBER_OF_BYTES

Video
ID                                       : 1
Format                                   : AVC
Format/Info                              : Advanced Video Codec
Format profile                           : High@L3.1
Format settings, CABAC                   : Yes
Format settings, ReFrames                : 5 frames
Codec ID                                 : V_MPEG4/ISO/AVC
Duration                                 : 1h 44mn
Bit rate mode                            : Constant
Bit rate                                 : 3 543 Kbps
Nominal bit rate                         : 4 100 Kbps
Width                                    : 1 280 pixels
Height                                   : 720 pixels
Display aspect ratio                     : 16:9
Frame rate                               : 24.000 fps
Standard                                 : Component
Color space                              : YUV
Chroma subsampling                       : 4:2:0
Bit depth                                : 8 bits
Scan type                                : Progressive
Bits/(Pixel*Frame)                       : 0.160
Stream size                              : 2.58 GiB (88%)
Default                                  : Yes
Forced                                   : No
Color primaries                          : BT.709-5, BT.1361, IEC 61966-2-4, SMPTE RP177
Transfer characteristics                 : BT.709-5, BT.1361
Matrix coefficients                      : BT.709-5, BT.1361, IEC 61966-2-4 709, SMPTE RP177

Audio
ID                                       : 2
Format                                   : AC-3
Format/Info                              : Audio Coding 3
Mode extension                           : CM (complete main)
Codec ID                                 : A_AC3
Duration                                 : 1h 44mn
Bit rate mode                            : Constant
Bit rate                                 : 384 Kbps
Channel(s)                               : 2 channels
Channel positions                        : Front: L R
Sampling rate                            : 48.0 KHz
Bit depth                                : 16 bits
Compression mode                         : Lossy
Stream size                              : 286 MiB (10%)
Default                                  : Yes
Forced                                   : No

pb.wtf



Скачать Праведник в маске через торрент http://i80.fastpic.ru/big/2016/0425/28/2732f14eb15c372a5c33ea2072486628.jpg Скачать фильм Праведник в маске через торрент бесплантно в хорошем качестве Описание: История развивается вокруг бывшего профессионального рестлера Криса Сэмюэлса, который решил оставить ринг и стать пастором в ... 8.7 10 7
Торрент: Зарегистрирован [2016-04-24 21:07] · скачан: 92 раз
Статус: T временная
Размер: 2.91 GB
Как cкачать? Как скачать Праведник в маске через торрент | qTorrent

28-11-2019 20:33  

Отключить всю рекламу на сайте

24-04-2016 23:28 Праведник в маске Скачать торрент  

И вы туда же?! Зачем казино указали?!pb.wtf
K-Lexx- писал(а):

Отредактировал, спасибо.



25-04-2016 01:21 Праведник в маске Скачать торрент  

Походу бесплатная реклама.pb.wtf



    Дорогой пользователь! Огромная просьба, поблагодарите релизера, оцените раздачу и оставьте свои комментарий, если Вы скачали Праведник в маске через торрент бесплатно! Внесите свою лепту в развитие PiratBit!
    Комментировать посты могут только пользователи прошедшие не сложную регистрацию
    Показать сообщения:    

    Праведник в маске через торрент
    Скачать бесплатно Праведник в маске
    Праведник в маске скачать торрент
    Праведник в маске смотреть онлайн
    Cкачать фильм Праведник в маске бесплатно
    Праведник в маске скачать торрент в хорошем качестве
    Праведник в маске смотреть онлайн бесплатно в хорошем качестве


    Вы не можете начинать темы
    Вы не можете отвечать на сообщения
    Вы не можете редактировать свои сообщения
    Вы не можете удалять свои сообщения
    Вы не можете голосовать в опросах
    Вы не можете прикреплять файлы к сообщениям
    Вы можете скачивать файлы