Ссылка на приватное зеркало всего за 1$. Внимание количество ограничено!!!

iTunes

iTunes

iTunes

1

iTunes

iTunes

iTunes

iTunes

iTunes

30
pack

$ от Little Big

ВАЖНО

!!Акция!!

Alien_RageХит недели

RePack

Resident Evil 21

ИГРА 18+

pack

RePack

jed

!!Акция!!

Alien_Rage

RePack

fifa19

RePack

Assassins Creed: Odyssey

RePack

NEED FOR SPEED™ PAYBACK

4 сезон

9 сезон

Бесстыжие 9 сезон

Все сериалы

все сериалы на PB.wtf

RePack

FAR CRY 5
  

Виль-Мари / Ville-Marie (Ги Эдуа ) [2015, драма, WEB-DL 720p] / Любительский (двухголосый) pb.wtf

Виль-Мари через торрент pb.wtf

Размер: 2.75 GB | Добавлен: 4 года 2 мес. назад | Торрент скачан:40 раз
Скачать  

24-04-2016 21:40 Виль-Мари Скачать торрент  

Виль-Мари / Ville-Marie

Год выпуска: 2015
Страна: Канада
Жанр: драма
Примечание: Присутствует текстовая рекламы!
Продолжительность: 01:39:55
Перевод: Любительский (двухголосый)
Режиссер: Ги Эдуа
В ролях: Моника Беллуччи (Sophie Bernard), Паскаль Бюссьер (Marie Santerre), Алеша Шнайдер (Thomas), Patrick Hivon (Pierre Pascal), Луис Шампейн (Benoit Tremblay), Фридерик Жиль (Robert M.), Стефани Лаббе (Danika Ménard), Marie-Evelyne Lessard (Dre Robillard), Сандрин Биссон (Serveuse Bar), Натали Гаскон (Première assistante), Mikhaïl Ahooja (Alexis), Патрик Ко (Directeur photo)
Описание:
Французская актриса Софи пытается наладить отношения с сыном, который хочет выяснить, кто же является его биологическим отцом. После неожиданных роковых событий судьба сводит их с медсестрой и работником отделения «скорой помощи», и теперь их жизни изменятся навсегда.
Рейтинг:

MPAA: PG-13 - Детям до 18 лет просмотр не желателен
Качество: WEB-DL 720p
Формат: MKV
Видео: AVC, 1280x536 (2.40:1), 3471 kbps, 23,976 fps, 0,211 bpp
Аудио: AC3 / 2.0 / 48 kHz / 384 kbps / 16 bit






Код:

General
Уникальный идентификатор                 : 235970687161212827766007596936085787488 (0xB1864D1E12EAE3D6893CD3718CDE5360)
Полное имя                               : D:\С инета\Виль-Мари - Ville-Marie (2015)_720.mkv
Формат                                   : Matroska
Версия формата                           : Version 4 / Version 2
Размер файла                             : 2,75 Гбайт
Продолжительность                        : 1 ч. 39 м.
Режим общего битрейта                    : Постоянный
Общий поток                              : 3934 Кбит/сек
Дата кодирования                         : UTC 2016-04-16 21:20:00
Программа кодирования                    : mkvmerge v7.6.0 ('Garden of Dreams') 64bit built on Feb  8 2015 13:04:34
Библиотека кодирования                   : libebml v1.3.1 + libmatroska v1.4.2

Видео
Идентификатор                            : 1
Формат                                   : AVC
Формат/Информация                        : Advanced Video Codec
Профиль формата                          : High@L4.1
Параметр CABAC формата                   : Да
Параметр ReFrames формата                : 12 кадров
Идентификатор кодека                     : V_MPEG4/ISO/AVC
Продолжительность                        : 1 ч. 39 м.
Вид битрейта                             : Постоянный
Битрейт                                  : 3548 Кбит/сек
Номинальный битрейт                      : 4100 Кбит/сек
Ширина                                   : 1280 пикселей
Высота                                   : 536 пикселей
Соотношение сторон                       : 2,40:1
Режим частоты кадров                     : Постоянный
Частота кадров                           : 23,976 (24000/1001) кадра/сек
Стандарт вещания                         : Component
Цветовое пространство                    : YUV
Субдискретизация насыщенности            : 4:2:0
Битовая глубина                          : 8 бит
Тип развёртки                            : Прогрессивная
Бит/(Пиксели*Кадры)                      : 0.216
Размер потока                            : 2,48 Гбайт (90%)
Default                                  : Да
Forced                                   : Нет
Цветовой диапазон                        : Limited
Основные цвета                           : BT.709
Характеристики трансфера                 : BT.709
Коэффициенты матрицы                     : BT.709

Аудио
Идентификатор                            : 2
Формат                                   : AC-3
Формат/Информация                        : Audio Coding 3
Расширение режима                        : CM (complete main)
Параметр Endianness формата              : Big
Идентификатор кодека                     : A_AC3
Продолжительность                        : 1 ч. 39 м.
Вид битрейта                             : Постоянный
Битрейт                                  : 384 Кбит/сек
Каналы                                   : 2 канала
Расположение каналов                     : Front: L R
Частота                                  : 48,0 КГц
Частота кадров                           : 31,250 кадров/сек (1536 spf)
Метод сжатия                             : С потерями
Задержка видео                           : 100 мс.
Размер потока                            : 274 Мбайт (10%)
Default                                  : Да
Forced                                   : Нет

pb.wtf



Скачать Виль-Мари через торрент http://i78.fastpic.ru/big/2016/0425/39/8618b492de5401111933c301a87d6a39.jpg Скачать фильм Виль-Мари через торрент бесплантно в хорошем качестве Описание: Французская актриса Софи пытается наладить отношения с сыном, который хочет выяснить, кто же является его биологическим отцом. ... 10 10 5
Торрент: Зарегистрирован [2016-04-24 21:40] · скачан: 40 раз
Статус: T временная
Размер: 2.75 GB
Как cкачать? Как скачать Виль-Мари через торрент | qTorrent



Последний раз редактировалось: DINO-UFO (2016-04-25 11:13), всего редактировалось 2 раз(а)

28-11-2019 20:33  

Отключить всю рекламу на сайте

25-04-2016 20:05 Виль-Мари Скачать торрент  

Будет перевод, дубляж или многоголоска ?pb.wtf



26-04-2016 11:44 Виль-Мари Скачать торрент  

w.a.s.p. писал(а):

Будет перевод, дубляж или многоголоска ?

конечно будет))) pb.wtf



26-04-2016 18:25 Виль-Мари Скачать торрент  

DINO-UFO писал(а):

w.a.s.p. писал(а):

Будет перевод, дубляж или многоголоска ?

конечно будет)))

Просто фильм вышел 12*09*2015 в мир, а сейчас уже апрель, может его не было в российском прокате... pb.wtf



29-04-2016 09:19 Виль-Мари Скачать торрент  

w.a.s.p. писал(а):

DINO-UFO писал(а):

w.a.s.p. писал(а):

Будет перевод, дубляж или многоголоска ?

конечно будет)))

Просто фильм вышел 12*09*2015 в мир, а сейчас уже апрель, может его не было в российском прокате...

как будет, так только так сразу!!!)))pb.wtf



    Дорогой пользователь! Огромная просьба, поблагодарите релизера, оцените раздачу и оставьте свои комментарий, если Вы скачали Виль-Мари через торрент бесплатно! Внесите свою лепту в развитие PiratBit!
    Комментировать посты могут только пользователи прошедшие не сложную регистрацию
    Показать сообщения:    

    Виль-Мари через торрент
    Скачать бесплатно Виль-Мари
    Виль-Мари скачать торрент
    Виль-Мари смотреть онлайн
    Cкачать фильм Виль-Мари бесплатно
    Виль-Мари скачать торрент в хорошем качестве
    Виль-Мари смотреть онлайн бесплатно в хорошем качестве


    Вы не можете начинать темы
    Вы не можете отвечать на сообщения
    Вы не можете редактировать свои сообщения
    Вы не можете удалять свои сообщения
    Вы не можете голосовать в опросах
    Вы не можете прикреплять файлы к сообщениям
    Вы можете скачивать файлы