Наша группа ВК в очередной раз забанена мы уходим в Телеграм, присоединяйтесь!!!

Лицензия

30

iTunes

мы

iTunes

1

1 сезон

Чернобыль

iTunes

1+1

iTunes

Закатать в асфальт

8 сезон

Игра престолов

1 сезон

Ральф против интернета

ИГРА 18+

pack

ВАЖНО

!!Акция!!

Alien_RageХит недели

RePack

Resident Evil 21
pack

RePack

Metro:Exodus

!!Акция!!

Alien_Rage

RePack

fifa19

RePack

Assassins Creed: Odyssey

RePack

NEED FOR SPEED™ PAYBACK

3 сезон

9 сезон

Бесстыжие 9 сезон

Все сериалы

все сериалы на PB.wtf

RePack

FAR CRY 5
Ребята, катастрофически не хватает 2730р. для оплаты серверов за АПРЕЛЬ (всвязи с блокировками трафик упал в 3 раза), 1-2р., выручайте.
  

Леди Гамильтон / That Hamilton Woman (Александр Корда) [1941, драма, мелодрама, военный, история, BDRip 1080p by msltel] 2 x MVO, AVO pb.wtf

Леди Гамильтон через торрент pb.wtf

Размер: 14.32 GB | Добавлен: 3 года 1 мес. назад | Торрент скачан:2 раза
Скачать  

25-04-2016 06:22 Леди Гамильтон Скачать торрент  

Название: Леди Гамильтон
Оригинальное название: That Hamilton Woman
Год выпуска: 1941
Страна: Великобритания
Жанр: драма, мелодрама, военный, история
Продолжительность: 02:04:54
Перевод: профессиональный многоголосый, авторский

Режиссёр: Александр Корда

В ролях: Вивьен Ли, Лоуренс Оливье, Алан Маубрэй, Сара Оллгуд, Глэдис Купер, Генри Уилкоксон, Хезер Эйнджел, Холлиуэлл Хоббс, Гилберт Эмери, Майлз Мандер, Рональд Синклер, Луис Альберни, Норма Друри

Описание: Франция, Кале. Холодным вечером в одной из лавок за кражу бутылки вина арестована плохо одетая женщина. В тюремной камере она рассказывает о своей жизни и трагической любви. Это была печальная исповедь знаменитой Леди Гамильтон. История началась в тёплом Неаполе. Юная Эмма знакомится с послом Британии лордом Гамильтоном и вскоре выходит за него замуж. Брак по расчёту не смущает ни знатного немолодого лорда, ни юную красавицу. Их спокойному сосуществованию приходит конец, когда на одном из светских приёмов Эмма знакомится с адмиралом Нельсоном. Страстное чувство, овладевшее ими, было так сильно, что, несмотря на разговоры и осуждения высшего света, они стали жить как муж и жена. Оставаясь формально в браке, супруги обоих сочли за благо просто не замечать происходящего. Её счастье было недолгим, и после трагической гибели Нельсона в битве при Трафальгаре жизнь для Эммы потеряла весь смысл...



Качество: BDRip 1080p Сравнение с исходником
Формат: MKV
Видео: MPEG-4 AVC, 14.3 Мбит/с, 1440x1080, 24 кадра/с
Аудио 1: русский, AC3, 192 kbps, 2 ch, 48 kHz [профессиональный многоголосый, Фильм Престиж]
Аудио 2: русский, AC3, 192 kbps, 2 ch, 48 kHz [профессиональный многоголосый, ТК Домашний]
Аудио 3: русский, AC3, 192 kbps, 2 ch, 48 kHz [авторский, Алексей Михалёв]
Аудио 4: английский, DTS, 1509 kbps, 2 ch, 48 kHz [оригинал]
Субтитры: английские
Общее
Уникальный идентификатор : 208897176652960089825274323248590105929 (0x9D2821FDF6098F00B9F4AC9C00BC2D49)
Полное имя : D:\Video\Леди Гамильтон.1941.BDRip.1080p.mkv
Формат : Matroska
Версия формата : Version 4 / Version 2
Размер файла : 14,3 Гбайт
Продолжительность : 2 ч. 4 м.
Общий поток : 16,4 Мбит/сек
Дата кодирования : UTC 2016-04-24 15:44:15
Программа кодирования : mkvmerge v8.2.0 ('World of Adventure') 64bit
Библиотека кодирования : libebml v1.3.1 + libmatroska v1.4.2

Видео
Идентификатор : 1
Формат : AVC
Формат/Информация : Advanced Video Codec
Профиль формата : High@L4.1
Параметр CABAC формата : Да
Параметр ReFrames формата : 4 кадра
Идентификатор кодека : V_MPEG4/ISO/AVC
Продолжительность : 2 ч. 4 м.
Битрейт : 14,3 Мбит/сек
Ширина : 1440 пикселей
Высота : 1080 пикселей
Соотношение сторон : 4:3
Режим частоты кадров : Постоянный
Частота кадров : 24,000 кадра/сек
Цветовое пространство : YUV
Субдискретизация насыщенности : 4:2:0
Битовая глубина : 8 бит
Тип развёртки : Прогрессивная
Бит/(Пиксели*Кадры) : 0.384
Размер потока : 12,5 Гбайт (87%)
Библиотека кодирования : x264 core 146 r2538 121396c
Настройки программы : cabac=1 / ref=4 / deblock=1:-3:-3 / analyse=0x3:0x113 / me=umh / subme=10 / psy=1 / psy_rd=1.00:0.15 / mixed_ref=1 / me_range=32 / chroma_me=1 / trellis=2 / 8x8dct=1 / cqm=0 / deadzone=21,11 / fast_pskip=1 / chroma_qp_offset=-3 / threads=6 / lookahead_threads=1 / sliced_threads=0 / nr=0 / decimate=1 / interlaced=0 / bluray_compat=0 / constrained_intra=0 / bframes=11 / b_pyramid=2 / b_adapt=2 / b_bias=0 / direct=1 / weightb=1 / open_gop=0 / weightp=2 / keyint=230 / keyint_min=23 / scenecut=40 / intra_refresh=0 / rc_lookahead=40 / rc=crf / mbtree=0 / crf=17.8 / qcomp=0.60 / qpmin=0 / qpmax=69 / qpstep=4 / vbv_maxrate=40000 / vbv_bufsize=50000 / crf_max=0.0 / nal_hrd=none / filler=0 / ip_ratio=1.40 / pb_ratio=1.30 / aq=1:1.00
Язык : English
Default : Да
Forced : Нет

Аудио #1
Идентификатор : 2
Формат : AC-3
Формат/Информация : Audio Coding 3
Расширение режима : CM (complete main)
Параметр Endianness формата : Big
Идентификатор кодека : A_AC3
Продолжительность : 2 ч. 4 м.
Вид битрейта : Постоянный
Битрейт : 192 Кбит/сек
Каналы : 2 канала
Расположение каналов : Front: L R
Частота : 48,0 КГц
Частота кадров : 31,250 кадров/сек (1536 spf)
Метод сжатия : С потерями
Размер потока : 172 Мбайт (1%)
Заголовок : MVO (Фильм Престиж)
Язык : Russian
Default : Да
Forced : Нет

Аудио #2
Идентификатор : 3
Формат : AC-3
Формат/Информация : Audio Coding 3
Расширение режима : CM (complete main)
Параметр Endianness формата : Big
Идентификатор кодека : A_AC3
Продолжительность : 2 ч. 4 м.
Вид битрейта : Постоянный
Битрейт : 192 Кбит/сек
Каналы : 2 канала
Расположение каналов : Front: L R
Частота : 48,0 КГц
Частота кадров : 31,250 кадров/сек (1536 spf)
Метод сжатия : С потерями
Размер потока : 172 Мбайт (1%)
Заголовок : MVO (ТК Домашний)
Язык : Russian
Default : Нет
Forced : Нет

Аудио #3
Идентификатор : 4
Формат : AC-3
Формат/Информация : Audio Coding 3
Расширение режима : CM (complete main)
Параметр Endianness формата : Big
Идентификатор кодека : A_AC3
Продолжительность : 2 ч. 4 м.
Вид битрейта : Постоянный
Битрейт : 192 Кбит/сек
Каналы : 2 канала
Расположение каналов : Front: L R
Частота : 48,0 КГц
Частота кадров : 31,250 кадров/сек (1536 spf)
Метод сжатия : С потерями
Размер потока : 172 Мбайт (1%)
Заголовок : AVO (Алексей Михалёв)
Язык : Russian
Default : Нет
Forced : Нет

Аудио #4
Идентификатор : 5
Формат : DTS
Формат/Информация : Digital Theater Systems
Режим : 16
Параметр Endianness формата : Big
Идентификатор кодека : A_DTS
Продолжительность : 2 ч. 4 м.
Вид битрейта : Постоянный
Битрейт : 1509 Кбит/сек
Каналы : 2 канала
Расположение каналов : Front: L R
Частота : 48,0 КГц
Частота кадров : 93,750 кадра/сек (512 spf)
Битовая глубина : 16 бит
Метод сжатия : С потерями
Размер потока : 1,32 Гбайт (9%)
Заголовок : Original
Язык : English
Default : Нет
Forced : Нет

Текст
Идентификатор : 6
Формат : UTF-8
Идентификатор кодека : S_TEXT/UTF8
Идентификатор кодека/Информация : UTF-8 Plain Text
Продолжительность : 2 ч. 2 м.
Битрейт : 80 бит/сек
Count of elements : 2102
Размер потока : 72,4 Кбайт (0%)
Заголовок : английский
Язык : English
Default : Нет
Forced : Нет
pb.wtf



Скачать Леди Гамильтон через торрент http://s014.radikal.ru/i326/1604/d4/fd4c7e9d74b0.jpg Скачать фильм Леди Гамильтон через торрент бесплантно в хорошем качестве Описание: Франция, Кале. Холодным вечером в одной из лавок за кражу бутылки вина арестована плохо одетая женщина. В тюремной камере она ... 10 10 1
Info! Золотая раздача, скачанное не засчитывается.
Торрент: Зарегистрирован [2016-04-25 06:22] · скачан: 2 раз
Статус: √ проверено
Размер: 14.32 GB
Как cкачать? Как скачать Леди Гамильтон через торрент | qTorrent

% Раздел Тема Автор DL S | L
Классика зарубежного кино [ 4.65 GB ] Леди Гамильтон / That Hamilton Woman [1941 военный история BDRip 720p by msltel] 2 x MVO AVO msltel Скачать
1 | 0


>> Регистрируемся здесь <<






Отзывы и комментарии о схеме читаем и пишем здесь: ---> Отзывы и комментарии о схеме

Новые благодарочки в телеграм довольных пользователей:
скриншот   скриншот   скриншот   скриншот   скриншот
    Дорогой пользователь! Огромная просьба, поблагодарите релизера, оцените раздачу и оставьте свои комментарий, если Вы скачали Леди Гамильтон через торрент бесплатно! Внесите свою лепту в развитие PiratBit!
    Комментировать посты могут только пользователи прошедшие не сложную регистрацию
    Показать сообщения:    

    Леди Гамильтон через торрент
    Скачать бесплатно Леди Гамильтон
    Леди Гамильтон скачать торрент
    Леди Гамильтон смотреть онлайн
    Cкачать фильм Леди Гамильтон бесплатно
    Леди Гамильтон скачать торрент в хорошем качестве
    Леди Гамильтон смотреть онлайн бесплатно в хорошем качестве


    Вы не можете начинать темы
    Вы не можете отвечать на сообщения
    Вы не можете редактировать свои сообщения
    Вы не можете удалять свои сообщения
    Вы не можете голосовать в опросах
    Вы не можете прикреплять файлы к сообщениям
    Вы можете скачивать файлы