Ссылка на приватное зеркало нашего сайта всего за 1$. Внимание количество ограничено!!!

2 сезон

iTunes

1 сезон

1

iTunes

iTunes

iTunes

1 сезон

RePack

30

ИГРА 18+

pack

ВАЖНО

!!Акция!!

Alien_RageХит недели

RePack

MK11
pack

Забери бонус

RePack

jed

!!Акция!!

Alien_Rage

RePack

fifa19

RePack

Assassins Creed: Odyssey

RePack

NEED FOR SPEED™ PAYBACK

4 сезон

9 сезон

Бесстыжие 9 сезон

Все сериалы

все сериалы на PB.wtf

RePack

FAR CRY 5
  

Призраки / Ghosted (Крэйг Вивейрос) [2011, триллер, драма, BDRip 1080p by msltel] DVO pb.wtf

Призраки через торрент pb.wtf

Размер: 9.88 GB | Добавлен: 4 года 5 мес. назад | Торрент скачан:22 раза
Скачать  

25-04-2016 09:04 Призраки Скачать торрент  

Название: Призраки
Оригинальное название: Ghosted
Год выпуска: 2011
Страна: Великобритания
Жанр: триллер, драма
Продолжительность: 01:46:26
Перевод: профессиональный двухголосый

Режиссёр: Крэйг Вивейрос

В ролях: Джон Линч, Дэвид Скофилд, Мартин Компстон, Крэйг Паркинсон, Арт Малик, Аманда Аббингтон, Хью Куарши, Питер Баррет, Джемма Болт

Описание: Рассказ о том, как выживают в британской тюрьме строгого режима. Джек – образцовый заключённый, но он тяжело переживает проблемы в своей семье. После того как на годовщину смерти его сына жена заявляет ему, что оставляет его, единственный человек, который не даёт ему умереть, - его новый сосед Пол. У самого Пола возникают проблемы с одним из уголовников, и, в итоге, Джек спасает ему жизнь. В то время как Джек и Пол наконец начинают понимать друг друга, становится очевидно, что Пол не совсем тот, кем кажется, и может иметь гораздо более близкую связь с Джеком, чем тот даже мог себе представить...



Качество: BDRip 1080p Сравнение с исходником
Формат: MKV
Видео: MPEG-4 AVC, 11.6 Mбит/с, 1920x816, 23,976 кадра/с
Аудио 1: русский, AC3, 192 kbps, 2 ch, 48 kHz [профессиональный двухголосый, НТВ+]
Аудио 2: английский, DTS, 1509 kbps, 6 ch, 48 kHz [оригинал]
Общее
Уникальный идентификатор : 216754399819428878777732820259865025914 (0xA3116100D5C70D1AAA3C0D3E84BADD7A)
Полное имя : D:\Video\Призраки.2011.BDRip.1080p.mkv
Формат : Matroska
Версия формата : Version 4 / Version 2
Размер файла : 9,88 Гбайт
Продолжительность : 1 ч. 46 м.
Общий поток : 13,3 Мбит/сек
Дата кодирования : UTC 2016-04-25 05:51:37
Программа кодирования : mkvmerge v8.2.0 ('World of Adventure') 64bit
Библиотека кодирования : libebml v1.3.1 + libmatroska v1.4.2

Видео
Идентификатор : 1
Формат : AVC
Формат/Информация : Advanced Video Codec
Профиль формата : High@L4.1
Параметр CABAC формата : Да
Параметр ReFrames формата : 4 кадра
Идентификатор кодека : V_MPEG4/ISO/AVC
Продолжительность : 1 ч. 46 м.
Битрейт : 11,6 Мбит/сек
Ширина : 1920 пикселей
Высота : 816 пикселей
Соотношение сторон : 2,35:1
Режим частоты кадров : Постоянный
Частота кадров : 23,976 (24000/1001) кадра/сек
Цветовое пространство : YUV
Субдискретизация насыщенности : 4:2:0
Битовая глубина : 8 бит
Тип развёртки : Прогрессивная
Бит/(Пиксели*Кадры) : 0.309
Размер потока : 8,62 Гбайт (87%)
Библиотека кодирования : x264 core 146 r2538 121396c
Настройки программы : cabac=1 / ref=4 / deblock=1:-1:-1 / analyse=0x3:0x113 / me=umh / subme=10 / psy=1 / psy_rd=1.00:0.15 / mixed_ref=1 / me_range=32 / chroma_me=1 / trellis=2 / 8x8dct=1 / cqm=0 / deadzone=21,11 / fast_pskip=1 / chroma_qp_offset=-3 / threads=6 / lookahead_threads=1 / sliced_threads=0 / nr=0 / decimate=1 / interlaced=0 / bluray_compat=0 / constrained_intra=0 / bframes=11 / b_pyramid=2 / b_adapt=2 / b_bias=0 / direct=1 / weightb=1 / open_gop=0 / weightp=2 / keyint=230 / keyint_min=23 / scenecut=40 / intra_refresh=0 / rc_lookahead=40 / rc=crf / mbtree=0 / crf=18.0 / qcomp=0.60 / qpmin=0 / qpmax=69 / qpstep=4 / vbv_maxrate=40000 / vbv_bufsize=50000 / crf_max=0.0 / nal_hrd=none / filler=0 / ip_ratio=1.40 / pb_ratio=1.30 / aq=1:1.00
Язык : English
Default : Да
Forced : Нет

Аудио #1
Идентификатор : 2
Формат : AC-3
Формат/Информация : Audio Coding 3
Расширение режима : CM (complete main)
Параметр Endianness формата : Big
Идентификатор кодека : A_AC3
Продолжительность : 1 ч. 42 м.
Вид битрейта : Постоянный
Битрейт : 192 Кбит/сек
Каналы : 2 канала
Расположение каналов : Front: L R
Частота : 48,0 КГц
Частота кадров : 31,250 кадров/сек (1536 spf)
Метод сжатия : С потерями
Размер потока : 140 Мбайт (1%)
Заголовок : DVO (HTB+)
Язык : Russian
Default : Да
Forced : Нет

Аудио #2
Идентификатор : 3
Формат : DTS
Формат/Информация : Digital Theater Systems
Режим : 16
Параметр Endianness формата : Big
Идентификатор кодека : A_DTS
Продолжительность : 1 ч. 46 м.
Вид битрейта : Постоянный
Битрейт : 1509 Кбит/сек
Каналы : 6 каналов
Расположение каналов : Front: L C R, Side: L R, LFE
Частота : 48,0 КГц
Частота кадров : 93,750 кадра/сек (512 spf)
Битовая глубина : 16 бит
Метод сжатия : С потерями
Размер потока : 1,12 Гбайт (11%)
Заголовок : Original
Язык : English
Default : Нет
Forced : Нет
pb.wtf



Скачать Призраки через торрент http://s017.radikal.ru/i418/1604/07/fe513c4b7da9.jpg Скачать фильм Призраки через торрент бесплантно в хорошем качестве Описание: Рассказ о том, как выживают в британской тюрьме строгого режима. Джек – образцовый заключённый, но он тяжело переживает проблемы ... 10 10 2
Info! Золотая раздача, скачанное не засчитывается.
Торрент: Зарегистрирован [2016-04-25 09:04] · скачан: 22 раз
Статус: √ проверено
Размер: 9.88 GB
Как cкачать? Как скачать Призраки через торрент | qTorrent

% Раздел Тема Автор DL S | L
Фильмы 2019-2020 [DVDrip, WEB-DLRip, HDrip] (DUB, MVO) [ 2.69 GB ] Призраки войны / Ghosts of War [2020 военный BDRip-AVC] +MVO [HDRezka Studio] bober100 Скачать
3 | 0
Фильмы 2019-2020 [DVDrip, WEB-DLRip, HDrip] (DUB, MVO) [ 1.46 GB ] Призраки войны / Ghosts of War [2020 военный BDRip] bober100 Скачать
7 | 0
Фильмы [HD 720p, 1080p] (Хороший звук DUB, MVO) [ 4.94 GB ] Призраки войны / Ghosts of War [2020 военный BDRip 720p] +MVO [HDRezka Studio] bober100 Скачать
9 | 2
Фильмы [HD 720p, 1080p] (Хороший звук DUB, MVO) [ 9.11 GB ] Призраки войны / Ghosts of War [2020 военный BDRip 1080p] +MVO [HDRezka Studio] bober100 Скачать
17 | 1
Фильмы 2019-2020 [DVDrip, WEB-DLRip, HDrip] (DUB, MVO) [ 1.41 GB ] Призраки войны / Ghosts of War [2020 военный BDRip-AVC] bober100 Скачать
5 | 0
Фильмы (Blu-ray, BD-Remux, HDDVD) [ 25.33 GB ] Призраки войны / Ghosts of War [2020 военный BD Remux 1080p] +MVO [HDRezka Studio] bober100 Скачать
1 | 1
Фильмы (WEB-DL 720p, 1080p) [ 6.02 GB ] Призраки войны / Ghosts of War [2020 военный WEB-DL 1080p] [AMZN Version] +MVO [HDRezka Studio] bober100 Скачать
6 | 0

28-11-2019 20:33  

Отключить всю рекламу на сайте

26-04-2016 00:51 Призраки Скачать торрент  

Из описания мысли пошли что фильм про геев...pb.wtf



    Дорогой пользователь! Огромная просьба, поблагодарите релизера, оцените раздачу и оставьте свои комментарий, если Вы скачали Призраки через торрент бесплатно! Внесите свою лепту в развитие PiratBit!
    Комментировать посты могут только пользователи прошедшие не сложную регистрацию
    Показать сообщения:    

    Призраки через торрент
    Скачать бесплатно Призраки
    Призраки скачать торрент
    Призраки смотреть онлайн
    Cкачать фильм Призраки бесплатно
    Призраки скачать торрент в хорошем качестве
    Призраки смотреть онлайн бесплатно в хорошем качестве


    Вы не можете начинать темы
    Вы не можете отвечать на сообщения
    Вы не можете редактировать свои сообщения
    Вы не можете удалять свои сообщения
    Вы не можете голосовать в опросах
    Вы не можете прикреплять файлы к сообщениям
    Вы можете скачивать файлы